<?xml version="1.0" standalone="no"?>
<!DOCTYPE svg PUBLIC "-//W3C//DTD SVG 1.1//EN" "http://www.w3.org/Graphics/SVG/1.1/DTD/svg11.dtd" >
<svg xmlns="http://www.w3.org/2000/svg">
<metadata>
<json>
{
	"fontFamily": "xeicon",
	"majorVersion": 1,
	"minorVersion": 3,
	"copyright": "(C) NAVER http://www.navercorp.com",
	"designerURL": "http://xpressengine.com",
	"license": "SIL OFL 1.1, MIT License, CCL 4.0",
	"licenseURL": "https://github.com/xpressengine/XEIcon",
	"fontURL": "http://xpressengine.github.io/XEIcon/",
	"description": "Font generated by IcoMoon.",
	"version": "Version 1.3",
	"fontId": "xeicon",
	"psName": "xeicon",
	"subFamily": "Regular",
	"fullName": "xeicon"
}
</json>
</metadata>
<defs>
<font id="xeicon" horiz-adv-x="1024">
<font-face units-per-em="1024" ascent="942.08" descent="-81.92" />
<missing-glyph horiz-adv-x="1024" />
<glyph unicode="&#x20;" d="" horiz-adv-x="512" />
<glyph unicode="&#xe600;" d="M725.333 895.787c-68.736 0-131.008-27.221-176.981-71.317l-0.171 0.107-2.88-2.88-1.92-1.899-138.432-138.432c0.448 0.021 0.896 0.021 1.344 0.064 6.784 0.405 13.504 1.024 20.373 1.024 30.656 0 60.203-4.416 88.448-11.989l94.677 94.656c0.725 0.661 1.536 1.28 2.283 1.941 30.165 26.859 69.717 43.392 113.259 43.392 94.208 0 170.667-76.416 170.667-170.667 0-43.541-16.533-83.115-43.413-113.28-1.685-1.899-3.264-3.904-5.035-5.696l-3.243-3.264-127.552-127.616c-10.475-10.261-22.357-19.072-35.179-26.389-24.875-14.187-53.547-22.443-84.203-22.443-54.912 0-103.659 26.069-134.869 66.368-0.128 0.149-0.256 0.341-0.384 0.491-7.701 11.115-20.523 18.453-35.093 18.453-23.552 0-42.667-19.115-42.667-42.667 0-8 2.325-15.424 6.165-21.824 2.155-2.944 4.416-5.781 6.677-8.64 42.432-53.568 105.813-89.771 178.048-96 2.709-0.235 5.333-0.661 8.064-0.811 4.693-0.256 9.323-0.704 14.037-0.704 25.856 0 50.773 3.925 74.283 11.029 35.84 10.859 68.053 29.205 95.339 53.419l11.52 10.667 127.531 127.531c46.485 46.379 75.307 110.507 75.307 181.376 0 141.376-114.624 256-256 256zM509.184 182.379l-89.643-89.685c-0.128-0.107-0.213-0.235-0.341-0.32-2.283-2.283-4.757-4.373-7.168-6.507-30.165-26.923-69.803-43.413-113.365-43.413-17.088 0-33.536 2.581-49.088 7.232-54.741 16.427-97.899 59.584-114.325 114.347-4.672 15.552-7.253 32.021-7.253 49.088 0 43.584 16.491 83.2 43.413 113.344 2.581 2.923 5.163 5.867 7.957 8.619l0.192-0.192 3.669 3.691 128.021 128c9.6 8.853 20.181 16.64 31.616 23.104 24.768 14.037 53.333 22.123 83.819 22.123 54.912 0 103.659-26.091 134.891-66.411 0.085-0.128 0.192-0.256 0.299-0.384 7.68-11.2 20.565-18.539 35.136-18.539 23.552 0 42.667 19.115 42.667 42.667 0 8.832-2.688 17.045-7.296 23.829 0 0 0 0.021-0.021 0.021-42.389 57.344-108.011 96.427-183.147 103.019-2.688 0.192-5.419 0.256-8.149 0.405-4.8 0.256-9.536 0.704-14.4 0.704-25.856 0-50.795-3.925-74.304-11.051-35.84-10.88-68.032-29.675-95.339-53.931-3.477-3.115-7.168-5.931-10.475-9.216l-127.488-127.531c-12.309-12.117-23.317-25.536-32.981-39.936-27.371-40.704-43.413-89.6-43.413-142.336 0-141.376 114.603-256 256-256 52.8 0 101.824 16 142.571 43.413 13.781 9.259 26.603 19.797 38.315 31.467h0.021l0.256 0.235 139.285 139.328c-7.232-0.469-14.421-1.109-21.781-1.109-30.549 0-59.989 4.373-88.149 11.925z" data-tags="link" />
<glyph unicode="&#xe601;" d="M725.333 895.787c-68.949 0-131.392-27.371-177.408-71.68l-0.149 0.107-2.624-2.645-1.6-1.579-150.507-150.507c-7.467-7.744-12.096-18.219-12.096-29.824 0-11.328 4.48-21.589 11.648-29.269l2.069-2.069c7.68-7.189 17.92-11.627 29.269-11.627 10.88 0 20.715 4.16 28.267 10.816l17.877 17.877 141.227 141.056c30.229 27.307 70.123 44.011 114.027 44.011 94.251 0 170.667-76.416 170.667-170.667 0-46.635-18.731-88.811-49.024-119.616l-152.853-152.853c-7.189-7.659-11.669-17.899-11.669-29.227 0-11.264 4.437-21.44 11.52-29.077l2.283-2.283c7.637-7.083 17.792-11.499 29.056-11.499 10.667 0 20.288 4.011 27.797 10.453l4.608 4.565 148.757 148.672c0.043 0.021 0.043 0.043 0.085 0.085 46.208 46.293 74.773 110.187 74.773 180.779 0 141.419-114.581 256-256 256zM629.525 244.032c-7.659 7.232-17.941 11.755-29.333 11.755-11.477 0-21.845-4.587-29.568-11.925l-153.472-153.408c-30.699-29.675-72.427-48-118.485-48-94.251 0-170.667 76.416-170.667 170.667 0 43.84 16.661 83.648 43.84 113.899l158.677 158.72c6.848 7.637 11.136 17.6 11.136 28.672 0 11.008-4.245 20.928-11.051 28.523l-3.413 3.435c-7.595 6.763-17.515 11.008-28.523 11.008-11.648 0-22.187-4.651-29.909-12.181l-0.875-0.853-150.955-150.933c-45.888-46.293-74.261-109.931-74.261-180.288 0-141.419 114.581-256 256-256 66.795 0 127.403 25.771 172.971 67.648l0.192-0.235 4.309 4.331 6.72 6.699 150.059 149.952c6.229 7.445 10.133 16.917 10.133 27.371 0 11.371-4.523 21.675-11.755 29.333l-1.771 1.813zM682.667 639.787c-11.968 0-22.699-4.928-30.464-12.843l-0.043 0.043-340.309-340.437c-8-7.744-13.013-18.56-13.013-30.592 0-23.573 19.093-42.667 42.667-42.667 12.011 0 22.848 4.992 30.613 13.013l0.043-0.043 340.331 340.416c7.936 7.744 12.843 18.517 12.843 30.443 0 23.573-19.115 42.667-42.667 42.667z" data-tags="link-l" />
<glyph unicode="&#xe602;" d="M394.645 608.342c7.68-7.189 17.92-11.627 29.269-11.627 10.88 0 20.715 4.16 28.267 10.816l17.877 17.877 141.227 141.056c30.251 27.285 70.144 43.989 114.048 43.989 94.251 0 170.667-76.416 170.667-170.667 0-46.635-18.731-88.811-49.024-119.616l-152.853-152.853c-7.189-7.659-11.669-17.899-11.669-29.227 0-11.264 4.437-21.44 11.52-29.077l2.283-2.283c7.637-7.083 17.792-11.499 29.056-11.499 10.667 0 20.288 4.011 27.797 10.453l4.608 4.565 148.757 148.672c0.043 0.021 0.043 0.043 0.085 0.085 46.208 46.293 74.773 110.187 74.773 180.779 0 141.419-114.581 256-256 256-68.949 0-131.392-27.371-177.408-71.68l-0.149 0.107-2.624-2.645-1.6-1.579-150.507-150.507c-7.467-7.744-12.096-18.219-12.096-29.824 0-11.328 4.48-21.589 11.648-29.269l2.048-2.048zM629.525 244.032c-7.659 7.232-17.941 11.755-29.333 11.755-11.477 0-21.845-4.587-29.568-11.925l-153.472-153.408c-30.699-29.675-72.427-48-118.485-48-94.251 0-170.667 76.416-170.667 170.667 0 43.84 16.661 83.648 43.84 113.899l158.677 158.72c6.848 7.637 11.136 17.6 11.136 28.672 0 11.008-4.245 20.928-11.051 28.523l-3.413 3.435c-7.595 6.763-17.515 11.008-28.523 11.008-11.648 0-22.187-4.651-29.909-12.181l-0.875-0.853-150.955-150.933c-45.888-46.293-74.261-109.931-74.261-180.288 0-141.419 114.581-256 256-256 66.795 0 127.403 25.771 172.971 67.648l0.192-0.235 4.309 4.331 6.72 6.699 150.059 149.952c6.229 7.445 10.133 16.917 10.133 27.371 0 11.371-4.523 21.675-11.755 29.333l-1.771 1.813zM279.531 711.851c5.952-17.877 22.592-29.184 40.469-29.184 4.48 0 9.024 0.725 13.504 2.219 22.357 7.467 34.432 31.616 26.987 53.973l-42.667 128c-7.445 22.357-31.68 34.411-53.973 26.987-22.357-7.467-34.432-31.616-26.987-53.973l42.667-128.021zM71.765 620.992l128-42.88c4.501-1.493 9.067-2.219 13.568-2.219 17.835 0 34.475 11.285 40.448 29.12 7.488 22.357-4.565 46.528-26.901 54.016l-128 42.901c-22.293 7.467-46.528-4.565-54.016-26.901-7.488-22.357 4.565-46.549 26.901-54.037zM744.469 141.398c-7.467 22.336-31.68 34.389-53.973 26.965-22.357-7.467-34.432-31.595-26.987-53.973l42.667-128c5.952-17.877 22.613-29.184 40.469-29.184 4.48 0 9.024 0.704 13.504 2.197 22.357 7.445 34.432 31.616 26.987 53.973l-42.667 128.021zM952.235 232.256l-128 42.901c-22.315 7.488-46.528-4.565-54.016-26.901-7.488-22.357 4.565-46.528 26.901-54.037l128-42.88c4.501-1.493 9.067-2.219 13.568-2.219 17.835 0 34.475 11.285 40.448 29.12 7.488 22.336-4.565 46.528-26.901 54.016z" data-tags="unlink" />
<glyph unicode="&#xe603;" d="M896 469.227h-341.333v341.333c0 23.552-19.115 42.667-42.667 42.667s-42.667-19.115-42.667-42.667v-341.333h-341.333c-23.552 0-42.667-19.115-42.667-42.667s19.115-42.667 42.667-42.667h341.333v-341.333c0-23.552 19.115-42.667 42.667-42.667s42.667 19.115 42.667 42.667v341.333h341.333c23.552 0 42.667 19.115 42.667 42.667s-19.115 42.667-42.667 42.667z" data-tags="plus" />
<glyph unicode="&#xe604;" d="M682.709 213.334h-341.333c-23.552 0-42.667-19.093-42.667-42.667 0-23.552 19.115-42.667 42.667-42.667h341.333c23.573 0 42.667 19.115 42.667 42.667 0 23.573-19.093 42.667-42.667 42.667zM341.397 640.022h170.667c23.552 0 42.667 19.072 42.667 42.645 0 23.616-19.115 42.667-42.667 42.667h-170.667c-23.552 0-42.667-19.051-42.667-42.667 0-23.552 19.115-42.645 42.667-42.645zM682.709 554.667h-341.333c-23.552 0-42.667-19.051-42.667-42.667 0-23.552 19.115-42.667 42.667-42.667h341.333c23.573 0 42.667 19.115 42.667 42.667 0 23.616-19.093 42.667-42.667 42.667zM682.709 384.022h-341.333c-23.552 0-42.667-19.115-42.667-42.688 0-23.552 19.115-42.667 42.667-42.667h341.333c23.573 0 42.667 19.115 42.667 42.667 0 23.595-19.093 42.688-42.667 42.688zM810.731 938.667h-597.333c-70.72 0-128-57.237-128-128v-767.979c0-70.741 57.28-128 128-128h597.333c70.72 0 128 57.259 128 128v767.979c0 70.763-57.28 128-128 128zM853.376 42.688c0-23.595-19.072-42.667-42.667-42.667h-597.333c-23.595 0-42.667 19.072-42.667 42.667v767.979c0 23.573 19.072 42.667 42.667 42.667h597.333c23.573 0 42.667-19.093 42.667-42.667v-767.979z" data-tags="paper" />
<glyph unicode="&#xe605;" d="M597.333-0h-384c-23.573 0-42.667 19.093-42.667 42.667v717.931c-49.707-17.621-85.333-64.875-85.333-120.597v-597.333c0-70.677 57.301-128 128-128h426.667c55.701 0 102.955 35.669 120.576 85.333h-163.243zM810.667 938.667h-426.667c-70.699 0-128-57.323-128-128v-597.333c0-70.699 57.301-128 128-128h426.667c70.677 0 128 57.301 128 128v597.333c0 70.677-57.323 128-128 128zM853.333 213.334c0-23.573-19.093-42.667-42.667-42.667h-426.667c-23.573 0-42.667 19.093-42.667 42.667v597.333c0 23.595 19.093 42.667 42.667 42.667h426.667c23.573 0 42.667-19.072 42.667-42.667v-597.333z" data-tags="stack-paper" />
<glyph unicode="&#xe606;" d="M986.901 481.11c0 0.021-0.021 0.043-0.043 0.043l-448 362.667c-15.659 12.672-38.037 12.672-53.696 0l-448-362.667c0 0-0.043-0.043-0.064-0.043l-33.088-26.795 26.795-33.109c0.021-0.021 0.021-0.043 0.043-0.043 0.021-0.021 0.021-0.021 0.043-0.043l26.816-33.109 33.152 26.837c0.021 0 0.021 0 0.021 0l37.12 30.059v-402.24c0-23.552 19.115-42.667 42.667-42.667h682.667c23.552 0 42.667 19.115 42.667 42.667v402.24l70.315-56.896 26.816 33.131c0.021 0.021 0.021 0.021 0.043 0.043s0.021 0.043 0.043 0.043l26.795 33.109-33.109 26.773zM586.667 85.334h-149.333v256h149.333v-256zM810.667 512v-426.667h-138.667v298.667c0 23.552-19.115 42.667-42.667 42.667h-234.667c-23.552 0-42.667-19.115-42.667-42.667v-298.667h-138.667v426.667c0 0.64-0.171 1.216-0.192 1.835l298.859 241.941 298.859-241.941c-0.021-0.619-0.192-1.195-0.192-1.835z" data-tags="home" />
<glyph unicode="&#xe607;" d="M212.331 682.667h598.336c23.552 0 42.667 19.115 42.667 42.667s-19.115 42.667-42.667 42.667h-598.336c-23.552 0-42.667-19.115-42.667-42.667s19.115-42.667 42.667-42.667zM810.667 469.334h-598.336c-23.552 0-42.667-19.115-42.667-42.667s19.115-42.667 42.667-42.667h598.336c23.552 0 42.667 19.115 42.667 42.667s-19.115 42.667-42.667 42.667zM810.667 170.667h-598.336c-23.552 0-42.667-19.115-42.667-42.667s19.115-42.667 42.667-42.667h598.336c23.552 0 42.667 19.115 42.667 42.667s-19.115 42.667-42.667 42.667z" data-tags="bars" />
<glyph unicode="&#xe608;" d="M939.2 895.979c-23.552 0-42.667-19.115-42.667-42.667v-24.832l-768.747-223.744c-3.52 20.011-20.885 35.243-41.92 35.243-23.552 0-42.667-19.115-42.667-42.667v-298.688c0-23.573 19.115-42.667 42.667-42.667 22.293 0 40.405 17.152 42.283 38.997l85.717-21.077v-103.253c0-105.877 86.144-192 192-192s192 86.123 192 192v8.832l298.667-73.429v-20.971c0-23.552 19.115-42.667 42.667-42.667s42.667 19.115 42.667 42.667v768.256c0 23.573-19.115 42.667-42.667 42.667zM512.533 170.646c0-58.795-47.851-106.667-106.667-106.667s-106.667 47.872-106.667 106.667v82.261l213.333-52.459v-29.803zM128.533 383.979v128l768 234.411v-554.411l-768 192z" data-tags="notice" />
<glyph unicode="&#xe609;" d="M853.867 639.979v213.333c0 3.648-0.597 7.104-1.451 10.496-0.235 0.917-0.533 1.771-0.832 2.667-0.853 2.645-1.941 5.141-3.285 7.531-0.405 0.704-0.725 1.429-1.152 2.112-1.835 2.88-3.968 5.525-6.421 7.893-0.512 0.491-1.109 0.896-1.664 1.365-2.176 1.877-4.501 3.52-7.019 4.928-0.469 0.256-0.832 0.683-1.323 0.917-0.363 0.171-0.747 0.213-1.088 0.384-3.157 1.536-6.443 2.773-9.963 3.499-0.064 0-0.128 0-0.192 0.021-2.667 0.512-5.44 0.832-8.277 0.832-0.64 0-1.259-0.171-1.877-0.192-1.003-0.043-1.984-0.192-2.965-0.299-2.709-0.32-5.333-0.875-7.872-1.664-0.811-0.256-1.621-0.448-2.432-0.747-3.285-1.259-6.379-2.837-9.237-4.843-0.128-0.085-0.277-0.128-0.405-0.213-80.043-57.131-315.925-205.397-444.544-205.397h-53.333c-0.384 0-0.747-0.085-1.131-0.107h-158.869c-70.592 0-128-57.429-128-128v-170.667c0-70.592 57.408-128 128-128h85.333v-42.56c0-144.021 93.824-239.509 97.835-243.52 8.32-8.32 19.243-12.48 30.165-12.48s21.845 4.16 30.165 12.48c16.661 16.683 16.661 43.669 0 60.352-0.725 0.725-72.832 74.112-72.832 183.168v42.667h42.667c128.597 0 364.48-148.437 444.523-205.632 0.107-0.085 0.256-0.107 0.384-0.192 3.179-2.24 6.72-3.925 10.453-5.227 0.789-0.277 1.557-0.512 2.347-0.725 3.733-1.067 7.573-1.813 11.627-1.813 3.243 0 6.379 0.427 9.408 1.109 0.789 0.171 1.515 0.491 2.283 0.725 2.283 0.661 4.501 1.451 6.613 2.453 0.405 0.192 0.832 0.256 1.216 0.448 0.469 0.256 0.832 0.661 1.301 0.917 2.539 1.429 4.885 3.093 7.083 4.971 0.533 0.448 1.109 0.853 1.621 1.344 2.453 2.368 4.587 5.013 6.443 7.915 0.427 0.683 0.747 1.387 1.131 2.091 1.344 2.389 2.432 4.885 3.285 7.552 0.299 0.896 0.597 1.771 0.832 2.667 0.875 3.371 1.451 6.848 1.451 10.496v213.333c94.187 0 170.795 76.629 170.795 170.816 0 94.165-76.629 170.795-170.795 170.795zM213.867 341.206h-85.333c-23.531 0-42.667 19.136-42.667 42.667v170.667c0 23.509 19.136 42.667 42.667 42.667h85.333v-256zM768.533 634.219v-469.205c-101.44 64.917-294.699 176.32-426.667 176.32h-42.667v255.979h42.667c131.968 0 325.248 111.275 426.667 176.107v-139.2zM853.867 383.723v170.923c47.125 0 85.461-38.336 85.461-85.44 0-47.125-38.336-85.483-85.461-85.483z" data-tags="announce" />
<glyph unicode="&#xe60a;" d="M512 917.334c-270.571 0-490.667-220.139-490.667-490.667 0-270.571 220.096-490.667 490.667-490.667s490.667 220.096 490.667 490.667c0 270.528-220.096 490.667-490.667 490.667zM106.667 426.667c0 223.509 181.824 405.333 405.333 405.333 96.427 0 184.96-33.963 254.613-90.368l-569.579-569.6c-56.405 69.675-90.368 158.208-90.368 254.635zM512 21.334c-96.427 0-184.96 33.963-254.635 90.368l569.557 569.579c56.448-69.653 90.411-158.208 90.411-254.613 0-223.509-181.824-405.333-405.333-405.333z" data-tags="slash-circle" />
<glyph unicode="&#xe60b;" d="M384.213 426.667l348.139 309.44c17.621 15.659 19.2 42.624 3.541 60.224-15.637 17.621-42.645 19.2-60.224 3.541l-384-341.333c-9.131-8.085-14.336-19.691-14.336-31.872s5.205-23.787 14.315-31.893l384-341.333c8.128-7.211 18.261-10.773 28.331-10.773 11.755 0 23.467 4.843 31.893 14.315 15.659 17.6 14.080 44.587-3.541 60.224l-348.117 309.461z" data-tags="angle-left" />
<glyph unicode="&#xe60c;" d="M774.855 336.836l-0.019-0.019c-15.283 15.302-40.086 15.302-55.408 0-15.302-15.302-15.302-40.105 0-55.388v0 0 0 0l89.852-89.872h-101.333c-74.942 0-141.654 35.365-184.758 90.165-10.443-26.196-23.354-51.137-38.951-74.217 56.916-58.132 136.129-94.319 223.709-94.319h101.333l-89.872-89.852c-15.302-15.302-15.302-40.105 0-55.446 15.283-15.263 40.105-15.263 55.408 0l156.76 156.779c15.302 15.302 15.302 40.105 0 55.408l-156.721 156.76zM80.983 661.778h78.37c74.942 0 141.654-35.385 184.739-90.184 10.443 26.196 23.354 51.137 38.951 74.197l0.019 0.058c-0.176 0.176-0.372 0.313-0.548 0.49-5.153 5.251-10.638 10.109-16.145 14.988-2.155 1.9-4.154 3.938-6.367 5.761-4.585 3.84-9.464 7.328-14.264 10.874-3.468 2.567-6.778 5.309-10.364 7.759-3.075 2.097-6.367 3.899-9.522 5.897-5.603 3.527-11.148 7.152-17.006 10.326-0.411 0.216-0.862 0.392-1.293 0.628-44.142 23.883-94.573 37.578-148.198 37.578h-78.37c-15.341 0-28.488-8.894-34.914-21.747-2.645-5.271-4.271-11.148-4.271-17.438 0-21.631 17.535-39.185 39.185-39.185zM523.187 571.594c43.103 54.8 109.816 90.184 184.758 90.184h101.333l-89.872-89.852c-15.302-15.302-15.302-40.105 0-55.446 15.283-15.263 40.105-15.263 55.408 0l156.76 156.78c15.302 15.302 15.302 40.105 0 55.408l-156.76 156.741c-15.283 15.302-40.086 15.302-55.408 0-15.302-15.302-15.302-40.105 0-55.388v0 0 0 0l89.872-89.872h-101.333c-87.598 0-166.753-36.247-223.649-94.397-18.261-18.691-34.286-39.576-47.473-62.344-1.039-1.783-2.174-3.508-3.174-5.329 0 0-0.019-0.039-0.019-0.039-24.902-44.907-39.165-96.494-39.165-151.372 0-54.703-18.926-104.938-50.373-144.946-43.084-54.8-109.797-90.165-184.739-90.165h-78.37c-21.631 0-39.185-17.556-39.185-39.185 0-6.602 1.783-12.735 4.683-18.202 6.564-12.442 19.474-20.984 34.503-20.984h72.297c2.038-0.039 4.016-0.313 6.073-0.313 118.202 0 221.044 65.478 274.452 162.090 24.824 44.907 39.028 96.454 39.028 151.393 0 0.099-0.019 0.235-0.019 0.313h0.019c0 54.703 18.926 104.938 50.354 144.927z" data-tags="shuffle" />
<glyph unicode="&#xe60d;" d="M732.352 458.56l-384 341.333c-17.6 15.659-44.587 14.059-60.224-3.541-15.659-17.6-14.080-44.587 3.541-60.224l348.117-309.461-348.139-309.44c-17.621-15.659-19.2-42.624-3.541-60.224 8.427-9.493 20.139-14.336 31.915-14.336 10.091 0 20.203 3.563 28.331 10.773l384 341.333c9.109 8.107 14.315 19.712 14.315 31.893s-5.205 23.787-14.315 31.893z" data-tags="angle-right" />
<glyph unicode="&#xe60e;" d="M885.227 305.686l-341.333 384c-16.192 18.219-47.573 18.219-63.765 0l-341.333-384c-15.659-17.6-14.080-44.587 3.541-60.224 17.6-15.637 44.587-14.059 60.224 3.541l309.44 348.117 309.44-348.117c8.427-9.493 20.139-14.336 31.915-14.336 10.091 0 20.203 3.563 28.331 10.773 17.6 15.659 19.2 42.624 3.541 60.245z" data-tags="angle-up" />
<glyph unicode="&#xe60f;" d="M512 916.184c-212.213 0-378.435-166.222-378.435-378.435 0-211.834 310.539-549.198 345.956-586.974l32.478-34.638 32.478 34.66c35.417 37.754 345.956 375.118 345.956 586.952 0 212.213-166.222 378.435-378.435 378.435zM512 47.52c-103.268 117.137-289.391 356.063-289.391 490.229 0 164.975 124.416 289.391 289.391 289.391s289.391-124.416 289.391-289.391c0-134.011-186.123-373.026-289.391-490.229z" data-tags="marker" />
<glyph unicode="&#xe610;" d="M693.611 834.048c-148.779 0-307.456-106.069-406.379-205.333-173.803-174.4-288.469-434.752-129.536-594.283 4.523-4.523 45.867-44.288 107.733-44.288 10.176 0 20.352 1.109 30.315 3.264 54.827 12.011 154.368 87.168 179.413 173.099 15.040 51.584 1.771 101.376-37.333 140.245-1.259 1.259-2.325 2.261-3.541 3.456-0.128 0.128-0.192 0.256-0.299 0.363-0.128 0.149-0.299 0.235-0.448 0.363-33.152 32.533-51.605 46.165-65.472 54.357 7.211 16.043 28.651 49.472 80.747 101.781 49.963 50.155 82.901 71.381 99.413 78.912 7.829-16.384 22.293-38.080 57.472-73.088 28.437-28.245 62.869-43.179 99.605-43.179 110.379 0 205.76 130.56 218.24 187.989 13.717 63.019-20.949 118.315-43.605 141.035-49.771 49.963-112.448 75.307-186.325 75.307zM395.179 211.478c0.555-6.677 0.235-13.547-1.963-21.099-15.573-53.483-90.176-107.989-115.776-113.6-3.989-0.853-8.021-1.301-12.032-1.301-1.984 0-3.84 0.299-5.739 0.469l135.509 135.531zM622.805 588.63c-2.261 6.187-5.717 15.552-14.4 25.131-12.309 13.611-29.888 21.077-49.472 21.077-42.091 0-99.499-36.181-170.56-107.541-110.187-110.549-109.056-157.419-108.693-172.821 0.427-18.453 7.787-35.115 20.651-46.848 7.509-6.848 14.357-10.453 19.349-13.077 4.075-2.133 10.368-5.525 22.443-15.488l-150.315-150.293c-76.544 129.643 45.163 328.619 155.883 439.68 110.741 111.189 243.307 180.245 345.92 180.245 35.2 0 66.411-8.448 93.376-24.768l-153.835-153.835c-6.891 9.493-9.003 14.891-10.347 18.539zM840.171 635.84c-6.229-28.736-76.352-120.789-134.848-120.789-2.048 0-3.968 0.405-5.909 0.64l141.013 140.992c1.131-6.699 1.28-13.76-0.256-20.843z" data-tags="telephone" />
<glyph unicode="&#xe611;" d="M682.667 469.227h-128v128c0 23.552-19.115 42.667-42.667 42.667s-42.667-19.115-42.667-42.667v-128h-128c-23.552 0-42.667-19.115-42.667-42.667 0-23.573 19.115-42.667 42.667-42.667h128v-128c0-23.573 19.115-42.667 42.667-42.667s42.667 19.093 42.667 42.667v128h128c23.552 0 42.667 19.093 42.667 42.667 0 23.552-19.115 42.667-42.667 42.667zM512 895.894c-259.2 0-469.333-210.133-469.333-469.333s210.133-469.333 469.333-469.333 469.333 210.133 469.333 469.333-210.133 469.333-469.333 469.333zM512 42.56c-212.053 0-383.979 171.925-383.979 384 0 212.053 171.925 383.979 383.979 383.979s384-171.904 384-383.979c0-212.075-171.947-384-384-384z" data-tags="plus-circle" />
<glyph unicode="&#xe612;" d="M682.816 469.248h-128v128c0 23.573-19.115 42.667-42.667 42.667s-42.667-19.093-42.667-42.667v-128h-128c-23.552 0-42.667-19.115-42.667-42.667s19.115-42.667 42.667-42.667h128v-128c0-23.552 19.115-42.667 42.667-42.667s42.667 19.115 42.667 42.667v128h128c23.552 0 42.667 19.115 42.667 42.667s-19.115 42.667-42.667 42.667zM832 874.582h-640c-70.677 0-128-57.301-128-128v-640c0-70.677 57.323-128 128-128h640c70.677 0 128 57.344 128 128v640c0 70.699-57.323 128-128 128zM874.667 106.582c0-23.552-19.115-42.667-42.667-42.667h-640c-23.552 0-42.667 19.115-42.667 42.667v640c0 23.573 19.115 42.667 42.667 42.667h640c23.552 0 42.667-19.093 42.667-42.667v-640z" data-tags="plus-square" />
<glyph unicode="&#xe613;" d="M896 469.227h-768c-23.552 0-42.667-19.115-42.667-42.667s19.115-42.667 42.667-42.667h768c23.552 0 42.667 19.115 42.667 42.667s-19.115 42.667-42.667 42.667z" data-tags="minus" />
<glyph unicode="&#xe614;" d="M682.667 469.227h-341.333c-23.552 0-42.667-19.115-42.667-42.667 0-23.573 19.115-42.667 42.667-42.667h341.333c23.552 0 42.667 19.093 42.667 42.667 0 23.552-19.115 42.667-42.667 42.667zM512 895.894c-259.2 0-469.333-210.133-469.333-469.333s210.133-469.333 469.333-469.333 469.333 210.133 469.333 469.333-210.133 469.333-469.333 469.333zM512 42.56c-212.053 0-383.979 171.925-383.979 384 0 212.053 171.925 383.979 383.979 383.979s384-171.904 384-383.979c0-212.075-171.947-384-384-384z" data-tags="minus-circle" />
<glyph unicode="&#xe615;" d="M682.816 469.248h-341.333c-23.552 0-42.667-19.115-42.667-42.667s19.115-42.667 42.667-42.667h341.333c23.552 0 42.667 19.115 42.667 42.667s-19.115 42.667-42.667 42.667zM832 874.582h-640c-70.677 0-128-57.301-128-128v-640c0-70.677 57.323-128 128-128h640c70.677 0 128 57.344 128 128v640c0 70.699-57.323 128-128 128zM874.667 106.582c0-23.552-19.115-42.667-42.667-42.667h-640c-23.552 0-42.667 19.115-42.667 42.667v640c0 23.573 19.115 42.667 42.667 42.667h640c23.552 0 42.667-19.093 42.667-42.667v-640z" data-tags="minus-square" />
<glyph unicode="&#xe616;" d="M840.853 158.038l-268.523 268.523 268.501 268.501c16.661 16.683 16.661 43.648 0.021 60.309-16.661 16.683-43.691 16.683-60.352 0l-268.501-268.48-268.501 268.48c-16.661 16.683-43.691 16.683-60.352 0-16.64-16.661-16.64-43.627 0.021-60.309l268.501-268.501-268.523-268.523c-16.64-16.661-16.64-43.648 0-60.309 16.661-16.683 43.691-16.683 60.352 0l268.501 268.501 268.501-268.501c16.661-16.683 43.691-16.683 60.352 0 16.64 16.661 16.64 43.648 0 60.309z" data-tags="close" />
<glyph unicode="&#xe617;" d="M512 895.894c-259.2 0-469.333-210.133-469.333-469.333s210.133-469.333 469.333-469.333 469.333 210.133 469.333 469.333-210.133 469.333-469.333 469.333zM512 42.56c-212.053 0-383.979 171.925-383.979 384 0 212.053 171.925 383.979 383.979 383.979s384-171.904 384-383.979c0-212.075-171.947-384-384-384zM691.52 606.059c-16.661 16.661-43.691 16.661-60.331 0l-119.189-119.168-119.168 119.168c-16.64 16.661-43.691 16.661-60.331 0-16.661-16.661-16.661-43.669 0-60.331l119.168-119.168-119.168-119.168c-16.661-16.661-16.661-43.669 0-60.331 8.341-8.341 19.243-12.501 30.165-12.501s21.845 4.16 30.165 12.501l119.168 119.168 119.168-119.168c8.32-8.341 19.243-12.501 30.165-12.501s21.845 4.16 30.165 12.501c16.661 16.661 16.661 43.669 0 60.331l-119.168 119.168 119.168 119.168c16.683 16.661 16.683 43.669 0.021 60.331z" data-tags="close-circle" />
<glyph unicode="&#xe618;" d="M832 874.582h-640c-70.677 0-128-57.301-128-128v-640c0-70.677 57.323-128 128-128h640c70.677 0 128 57.344 128 128v640c0 70.699-57.323 128-128 128zM874.667 106.582c0-23.552-19.115-42.667-42.667-42.667h-640c-23.552 0-42.667 19.115-42.667 42.667v640c0 23.573 19.115 42.667 42.667 42.667h640c23.552 0 42.667-19.093 42.667-42.667v-640zM691.648 606.080c-16.661 16.661-43.691 16.661-60.331 0l-119.168-119.168-119.168 119.168c-16.64 16.661-43.691 16.661-60.331 0-16.661-16.661-16.661-43.669 0-60.331l119.168-119.168-119.168-119.168c-16.661-16.661-16.661-43.669 0-60.331 8.341-8.341 19.243-12.501 30.165-12.501s21.845 4.16 30.165 12.501l119.168 119.168 119.168-119.168c8.32-8.341 19.243-12.501 30.165-12.501s21.845 4.16 30.165 12.501c16.661 16.661 16.661 43.669 0 60.331l-119.168 119.168 119.168 119.168c16.683 16.64 16.683 43.648 0 60.331z" data-tags="close-square" />
<glyph unicode="&#xe619;" d="M881.664 650.56c-17.621 15.659-44.587 14.080-60.224-3.541l-309.461-348.139-309.44 348.139c-15.637 17.621-42.645 19.2-60.224 3.541-17.621-15.659-19.2-42.624-3.541-60.224l341.333-384c8.085-9.131 19.691-14.336 31.872-14.336s23.787 5.205 31.893 14.315l341.333 384c15.659 17.621 14.080 44.587-3.541 60.245z" data-tags="angle-down" />
<glyph unicode="&#xe61a;" d="M512 895.894c-259.2 0-469.333-210.133-469.333-469.333s210.133-469.333 469.333-469.333 469.333 210.133 469.333 469.333-210.133 469.333-469.333 469.333zM512 42.56c-212.053 0-383.979 171.925-383.979 384 0 212.053 171.925 383.979 383.979 383.979s384-171.904 384-383.979c0-212.075-171.947-384-384-384zM606.165 627.392c-16.64 16.661-43.691 16.661-60.331 0l-170.667-170.667c-16.661-16.661-16.661-43.669 0-60.331l170.667-170.667c8.32-8.341 19.243-12.501 30.165-12.501s21.845 4.16 30.165 12.501c16.661 16.661 16.661 43.669 0 60.331l-140.48 140.501 140.48 140.501c16.661 16.661 16.661 43.669 0 60.331z" data-tags="left-circle" />
<glyph unicode="&#xe61b;" d="M832 874.582h-640c-70.677 0-128-57.301-128-128v-640c0-70.677 57.323-128 128-128h640c70.677 0 128 57.344 128 128v640c0 70.699-57.323 128-128 128zM874.667 106.582c0-23.552-19.115-42.667-42.667-42.667h-640c-23.552 0-42.667 19.115-42.667 42.667v640c0 23.573 19.115 42.667 42.667 42.667h640c23.552 0 42.667-19.093 42.667-42.667v-640zM606.315 627.414c-16.64 16.661-43.691 16.661-60.331 0l-170.667-170.667c-16.661-16.661-16.661-43.669 0-60.331l170.667-170.667c8.32-8.341 19.243-12.501 30.165-12.501s21.845 4.16 30.165 12.501c16.661 16.661 16.661 43.669 0 60.331l-140.48 140.501 140.48 140.501c16.661 16.661 16.661 43.648 0 60.331z" data-tags="left-square" />
<glyph unicode="&#xe61c;" d="M853.333 896h-128c-23.552 0-42.667-19.093-42.667-42.688 0-23.531 19.115-42.645 42.667-42.645h128c23.573 0 42.667-19.093 42.667-42.667v-128c0-23.552 19.115-42.667 42.667-42.667s42.667 19.115 42.667 42.667v128c0 70.635-57.323 128-128 128zM298.667 896h-128c-70.677 0-128-57.344-128-128v-128c0-23.552 19.115-42.667 42.667-42.667 23.573 0 42.667 19.115 42.667 42.667v128c0 23.573 19.115 42.667 42.667 42.667h128c23.552 0 42.667 19.115 42.667 42.645 0 23.595-19.115 42.688-42.667 42.688zM938.667 256c-23.552 0-42.667-19.115-42.667-42.667v-128c0-23.595-19.093-42.667-42.667-42.667h-128c-23.552 0-42.667-19.093-42.667-42.667 0-23.595 19.115-42.667 42.667-42.667h128c70.677 0 128 57.301 128 128v128c0 23.531-19.115 42.667-42.667 42.667zM298.667 42.667h-128c-23.552 0-42.667 19.072-42.667 42.667v128c0 23.552-19.093 42.667-42.667 42.667-23.552 0-42.667-19.115-42.667-42.667v-128c0-70.699 57.323-128 128-128h128c23.552 0 42.667 19.072 42.667 42.667 0 23.573-19.115 42.667-42.667 42.667z" data-tags="expand-square" />
<glyph unicode="&#xe61d;" d="M511.936 895.894c-259.2 0-469.333-210.133-469.333-469.333s210.133-469.333 469.333-469.333 469.333 210.133 469.333 469.333-210.133 469.333-469.333 469.333zM511.936 42.56c-212.053 0-384 171.925-384 384 0 212.053 171.947 383.979 384 383.979s383.979-171.904 383.979-383.979c0-212.075-171.904-384-383.979-384zM478.101 627.392c-16.64 16.661-43.691 16.661-60.331 0-16.661-16.661-16.661-43.669 0-60.331l140.48-140.501-140.48-140.501c-16.661-16.661-16.661-43.669 0-60.331 8.32-8.341 19.243-12.501 30.165-12.501s21.845 4.16 30.165 12.501l170.667 170.667c16.661 16.661 16.661 43.669 0 60.331l-170.667 170.667z" data-tags="right-circle" />
<glyph unicode="&#xe61e;" d="M832 874.582h-640c-70.677 0-128-57.301-128-128v-640c0-70.677 57.323-128 128-128h640c70.677 0 128 57.344 128 128v640c0 70.699-57.323 128-128 128zM874.667 106.582c0-23.552-19.115-42.667-42.667-42.667h-640c-23.552 0-42.667 19.115-42.667 42.667v640c0 23.573 19.115 42.667 42.667 42.667h640c23.552 0 42.667-19.093 42.667-42.667v-640zM448.085 213.248c-10.923 0-21.845 4.16-30.165 12.501-16.661 16.661-16.661 43.669 0 60.331l140.48 140.501-140.48 140.501c-16.661 16.661-16.661 43.669 0 60.331 16.64 16.661 43.691 16.661 60.331 0l170.667-170.667c16.661-16.661 16.661-43.669 0-60.331l-170.667-170.667c-8.32-8.341-19.243-12.501-30.165-12.501z" data-tags="right-square" />
<glyph unicode="&#xe61f;" d="M950.229 864.64c-16.661 16.64-43.669 16.64-60.331 0l-816.128-816.149c-16.661-16.64-16.661-43.669 0-60.309 8.341-8.363 19.243-12.523 30.165-12.523s21.824 4.16 30.165 12.523l816.128 816.128c16.661 16.64 16.661 43.669 0 60.331zM511.979 255.723c94.251 0 170.667 76.416 170.667 170.667 0 15.083-2.133 29.568-5.781 43.477l-208.341-208.341c13.909-3.691 28.416-5.803 43.456-5.803zM341.312 426.39c0-15.189 2.176-29.803 5.909-43.84l208.619 208.619c-13.995 3.755-28.672 5.909-43.883 5.909-94.229 0.021-170.645-76.437-170.645-170.688zM222.848 258.176c-61.867 60.309-104.533 127.147-126.827 166.613 47.957 85.845 190.421 300.267 415.957 300.267 53.504 0 102.251-12.075 146.219-31.509l64.085 64.085c-60.928 31.829-130.923 52.757-210.304 52.757-341.333 0-512-385.749-512-385.749s54.123-121.152 162.304-227.029l60.565 60.565zM861.568 654.592l-60.544-60.565c61.952-60.693 104.661-127.979 126.955-167.637-48.043-85.504-190.464-298.667-416-298.667-53.376 0-102.080 12.011-146.005 31.253l-64.128-64.128c60.864-31.659 130.837-52.459 210.133-52.459 341.333 0 512 384 512 384s-54.123 121.792-162.411 228.203z" data-tags="eye-slash" />
<glyph unicode="&#xe620;" d="M512 895.894c-259.2 0-469.333-210.133-469.333-469.333s210.133-469.333 469.333-469.333 469.333 210.133 469.333 469.333-210.133 469.333-469.333 469.333zM512 42.56c-212.053 0-383.979 171.904-383.979 384 0 212.075 171.925 384 383.979 384s384-171.925 384-384c0-212.117-171.947-384-384-384zM542.165 563.392c-16.64 16.661-43.691 16.661-60.331 0l-170.667-170.667c-16.661-16.661-16.661-43.669 0-60.331 16.64-16.661 43.691-16.661 60.331 0l140.501 140.501 140.501-140.501c8.32-8.341 19.243-12.501 30.165-12.501s21.845 4.16 30.165 12.501c16.661 16.661 16.661 43.669 0 60.331l-170.667 170.667z" data-tags="up-circle" />
<glyph unicode="&#xe621;" d="M832 874.539h-640c-70.677 0-128-57.301-128-128v-640c0-70.677 57.323-128 128-128h640c70.677 0 128 57.344 128 128v640c0 70.699-57.323 128-128 128zM874.667 106.539c0-23.552-19.115-42.667-42.667-42.667h-640c-23.552 0-42.667 19.115-42.667 42.667v640c0 23.573 19.115 42.667 42.667 42.667h640c23.552 0 42.667-19.093 42.667-42.667v-640zM682.667 319.872c-10.923 0-21.845 4.16-30.165 12.501l-140.501 140.501-140.501-140.501c-16.64-16.661-43.691-16.661-60.331 0-16.661 16.661-16.661 43.669 0 60.331l170.667 170.667c16.64 16.661 43.691 16.661 60.331 0l170.667-170.667c16.661-16.661 16.661-43.669 0-60.331-8.32-8.341-19.243-12.501-30.165-12.501z" data-tags="up-square" />
<glyph unicode="&#xe622;" d="M469.483 316.267l-97.963 97.899c-16.661 16.661-43.691 16.661-60.352 0-16.64-16.64-16.64-43.648 0-60.331 0.085-0.085 0.192-0.149 0.277-0.213l169.515-169.493c0.299-0.32 0.491-0.661 0.789-0.96 16.661-16.683 43.691-16.683 60.352 0v0 0l170.432 170.411c0.107 0.107 0.235 0.171 0.341 0.277 16.64 16.661 16.64 43.691 0 60.331-16.661 16.661-43.691 16.661-60.352 0v0l-0.043 0.021-97.835-97.813v536.064c0.235 11.179-3.861 22.464-12.416 31.040-16.64 16.661-43.669 16.661-60.331 0-8.555-8.576-12.651-19.861-12.416-31.040v-536.192zM810.667 768.022h-128c-23.573 0-42.667-19.115-42.667-42.667s19.115-42.667 42.667-42.667h128c23.552 0 42.667-19.115 42.667-42.667v-554.688c0-23.552-19.115-42.667-42.667-42.667h-597.333c-23.552 0-42.667 19.115-42.667 42.667v554.688c0 23.552 19.115 42.667 42.667 42.667h128c23.552 0 42.667 19.115 42.667 42.667s-19.115 42.667-42.667 42.667h-128c-70.677 0-128-57.323-128-128v-554.688c0-70.677 57.323-128 128-128h597.333c70.677 0 128 57.323 128 128v554.688c0 70.677-57.323 128-128 128z" data-tags="download-square" />
<glyph unicode="&#xe623;" d="M512 895.894c-259.2 0-469.333-210.133-469.333-469.333s210.133-469.333 469.333-469.333 469.333 210.133 469.333 469.333-210.133 469.333-469.333 469.333zM512 42.56c-212.053 0-383.979 171.904-383.979 384 0 212.075 171.925 384 383.979 384s384-171.925 384-384c0-212.117-171.947-384-384-384zM652.501 520.726l-140.501-140.501-140.501 140.501c-16.64 16.661-43.691 16.661-60.331 0-16.661-16.661-16.661-43.669 0-60.331l170.667-170.667c8.32-8.341 19.243-12.501 30.165-12.501s21.845 4.16 30.165 12.501l170.667 170.667c16.661 16.661 16.661 43.669 0 60.331-16.64 16.661-43.691 16.661-60.331 0z" data-tags="down-circle" />
<glyph unicode="&#xe624;" d="M832 874.539h-640c-70.677 0-128-57.301-128-128v-640c0-70.677 57.323-128 128-128h640c70.677 0 128 57.344 128 128v640c0 70.699-57.323 128-128 128zM874.667 106.539c0-23.552-19.115-42.667-42.667-42.667h-640c-23.552 0-42.667 19.115-42.667 42.667v640c0 23.573 19.115 42.667 42.667 42.667h640c23.552 0 42.667-19.093 42.667-42.667v-640zM512 277.206c-10.923 0-21.845 4.16-30.165 12.501l-170.667 170.667c-16.661 16.661-16.661 43.669 0 60.331 16.64 16.661 43.691 16.661 60.331 0l140.501-140.501 140.501 140.501c16.64 16.661 43.691 16.661 60.331 0 16.661-16.661 16.661-43.669 0-60.331l-170.667-170.667c-8.32-8.341-19.243-12.501-30.165-12.501z" data-tags="down-square" />
<glyph unicode="&#xe625;" d="M896 469.227c-0.064 0-0.128-0.021-0.192-0.021v0.021h-664.811l225.685 225.707c0.107 0.085 0.213 0.192 0.299 0.299l0.363 0.363-0.021 0.021c7.403 7.68 12.011 18.091 12.011 29.611 0 23.573-19.115 42.667-42.667 42.667-10.624 0-20.203-4.011-27.669-10.432l-0.107 0.107-1.152-1.131c-0.789-0.747-1.536-1.493-2.283-2.283l-297.621-297.408c0 0-0.021-0.021-0.021-0.021l-0.107-0.128c-7.637-7.701-12.373-18.325-12.373-30.037s4.736-22.315 12.395-30.037v0l298.517-298.453c0.213-0.213 0.405-0.427 0.619-0.619l0.171-0.171 0.021 0.021c7.68-7.445 18.091-12.053 29.632-12.053 23.552 0 42.667 19.115 42.667 42.667 0 11.264-4.437 21.419-11.563 29.056l0.107 0.107-226.944 226.816 664.875 0.021c0.064 0 0.128-0.021 0.192-0.021 23.552 0 42.667 19.115 42.667 42.667-0.021 23.573-19.136 42.667-42.688 42.667z" data-tags="arrow-left" />
<glyph unicode="&#xe626;" d="M926.272 396.523c7.659 7.723 12.395 18.325 12.395 30.037s-4.736 22.315-12.373 30.037v0 0c-0.085 0.085-0.171 0.171-0.256 0.256l-297.493 297.301c-0.747 0.789-1.493 1.557-2.304 2.283l-1.131 1.131-0.107-0.107c-7.467 6.421-17.045 10.432-27.669 10.432-23.552 0-42.667-19.093-42.667-42.667 0-11.52 4.608-21.909 12.032-29.611l-0.021-0.021 0.363-0.363c0.085-0.107 0.192-0.192 0.299-0.299l225.685-225.707-664.832-0.021c-0.064 0-0.128 0.021-0.192 0.021-23.552 0-42.667-19.093-42.667-42.667 0-23.552 19.115-42.667 42.667-42.667 0.064 0 0.128 0.021 0.192 0.021v-0.021h664.875l-226.837-226.965c-7.125-7.616-11.563-17.771-11.563-29.035 0-23.552 19.115-42.667 42.667-42.667 11.541 0 21.952 4.629 29.632 12.053l0.021-0.021 0.171 0.171c0.213 0.213 0.427 0.427 0.619 0.619l298.496 298.475z" data-tags="arrow-right" />
<glyph unicode="&#xe627;" d="M841.28 541.526v0l-0.128 0.149c-0.235 0.235-0.448 0.448-0.683 0.683l-298.24 298.304c-0.043 0.043-0.085 0.085-0.128 0.128l-0.043 0.043c-7.723 7.637-18.325 12.373-30.037 12.373-11.925 0-22.677-4.907-30.421-12.8l-297.131-297.259c-0.853-0.768-1.643-1.579-2.411-2.411l-1.067-1.067 0.107-0.085c-6.421-7.488-10.432-17.067-10.432-27.691 0-23.552 19.115-42.667 42.667-42.667 11.52 0 21.909 4.608 29.589 12.032l0.043-0.043 226.368 226.325v-664.789h0.021c0-0.085-0.021-0.128-0.021-0.192 0-23.552 19.115-42.667 42.667-42.667s42.667 19.115 42.667 42.667c0 0.064-0.021 0.128-0.021 0.192h0.021v664.875l226.987-226.859c7.616-7.104 17.771-11.563 29.013-11.563 23.552 0 42.667 19.115 42.667 42.667 0 11.563-4.629 21.973-12.053 29.653z" data-tags="arrow-up" />
<glyph unicode="&#xe628;" d="M841.28 311.595c7.424 7.68 12.053 18.112 12.053 29.632 0 23.573-19.115 42.667-42.667 42.667-11.243 0-21.397-4.437-29.035-11.563l-0.085 0.085-0.96-0.96c-0.043-0.043-0.085-0.085-0.128-0.128l-225.792-225.856v664.917h-0.021c0 0.064 0.021 0.107 0.021 0.171 0 23.573-19.115 42.667-42.667 42.667s-42.667-19.093-42.667-42.667c0-0.043 0.021-0.107 0.021-0.149h-0.021v-664.853l-225.664 225.643c-0.128 0.128-0.235 0.235-0.363 0.363l-0.341 0.341-0.021-0.021c-7.68 7.424-18.091 12.032-29.611 12.032-23.552 0-42.667-19.093-42.667-42.667 0-10.603 4.011-20.181 10.432-27.648l-0.107-0.085 1.003-1.003c0.832-0.896 1.664-1.749 2.56-2.56l297.173-297.408c0.064-0.064 0.128-0.128 0.192-0.192l0.064-0.064c7.701-7.637 18.283-12.373 29.995-12.373s22.293 4.736 30.016 12.373l0.021-0.021 298.389 298.496c0.256 0.235 0.491 0.469 0.725 0.725l0.149 0.107z" data-tags="arrow-down" />
<glyph unicode="&#xe629;" d="M798.443 157.803l-268.821 268.715 268.309 268.331c7.851 7.765 12.736 18.496 12.736 30.379 0 23.573-19.115 42.667-42.667 42.667-11.904 0-22.635-4.885-30.379-12.757l-296.128-296.469c-9.003-7.829-14.827-19.221-14.827-32.107 0-11.712 4.736-22.315 12.395-30.037v0l298.411-298.325c7.765-7.979 18.56-12.971 30.549-12.971 23.552 0 42.667 19.115 42.667 42.667 0 11.648-4.693 22.187-12.267 29.888l0.021 0.021zM542.443 157.803l-268.821 268.715 268.309 268.331c7.851 7.765 12.736 18.496 12.736 30.379 0 23.573-19.115 42.667-42.667 42.667-11.904 0-22.635-4.885-30.379-12.757l-296.128-296.469c-9.003-7.829-14.827-19.221-14.827-32.107 0-11.712 4.736-22.315 12.395-30.037v0l298.411-298.325c7.765-7.979 18.56-12.971 30.549-12.971 23.552 0 42.667 19.115 42.667 42.667 0 11.648-4.693 22.187-12.267 29.888l0.021 0.021z" data-tags="angle-double-left" />
<glyph unicode="&#xe62a;" d="M584.96 396.502v0c7.637 7.723 12.373 18.325 12.373 30.037 0 12.885-5.824 24.277-14.827 32.107l0.085 0.085-296.213 296.405c-7.744 7.872-18.475 12.757-30.379 12.757-23.552 0-42.667-19.093-42.667-42.667 0-11.883 4.885-22.613 12.736-30.357h-0.021l268.331-268.331-268.8-268.757c-7.552-7.701-12.245-18.24-12.245-29.888 0-23.552 19.115-42.667 42.667-42.667 12.011 0 22.784 4.992 30.549 12.971l298.411 298.304zM840.939 396.523c7.659 7.723 12.395 18.325 12.395 30.037 0 12.885-5.824 24.277-14.827 32.107l0.085 0.085-296.213 296.384c-7.744 7.872-18.475 12.757-30.379 12.757-23.552 0-42.667-19.093-42.667-42.667 0-11.883 4.885-22.613 12.736-30.357h-0.021l268.331-268.331-268.8-268.757c-7.552-7.701-12.245-18.24-12.245-29.888 0-23.552 19.115-42.667 42.667-42.667 12.011 0 22.784 4.992 30.549 12.971l298.389 298.325z" data-tags="angle-double-right" />
<glyph unicode="&#xe62b;" d="M840.576 200.939l-296.491 296.128c-7.829 9.003-19.221 14.827-32.085 14.827-11.712 0-22.315-4.736-30.037-12.395v0l-0.128-0.128c0 0 0 0 0 0l-298.304-298.347c-7.936-7.744-12.864-18.517-12.864-30.464 0-23.573 19.115-42.667 42.667-42.667 11.648 0 22.187 4.693 29.888 12.245v0l0.128 0.128c0.085 0.085 0.171 0.171 0.256 0.256l268.352 268.416 268.352-268.352c7.744-7.829 18.453-12.715 30.336-12.715 23.552 0 42.667 19.093 42.667 42.667 0.021 11.925-4.864 22.656-12.736 30.4zM213.333 383.894c11.648 0 22.187 4.693 29.888 12.245v0l0.128 0.128c0.085 0.085 0.171 0.171 0.256 0.256l268.352 268.416 268.352-268.352c7.744-7.829 18.453-12.715 30.336-12.715 23.552 0 42.667 19.093 42.667 42.667 0 11.904-4.885 22.635-12.757 30.379l-296.469 296.149c-7.808 9.003-19.2 14.827-32.085 14.827-11.712 0-22.315-4.736-30.037-12.395v0l-0.128-0.128c0 0 0 0 0 0l-298.304-298.347c-7.936-7.744-12.864-18.517-12.864-30.464 0-23.573 19.115-42.667 42.667-42.667z" data-tags="angle-double-up" />
<glyph unicode="&#xe62c;" d="M226.325 651.99l298.112-298.197c0.043-0.043 0.085-0.085 0.128-0.128l0.043-0.043c7.723-7.637 18.325-12.373 30.037-12.373 12.885 0 24.277 5.803 32.107 14.827l0.085-0.085 296.405 296.192c7.872 7.744 12.757 18.475 12.757 30.379 0 23.552-19.115 42.667-42.667 42.667-11.904 0-22.635-4.885-30.357-12.736v0l-268.352-268.309-268.736 268.779c-7.701 7.573-18.24 12.267-29.888 12.267-23.552 0-42.667-19.115-42.667-42.667 0-12.011 4.992-22.827 12.992-30.571zM853.333 469.227c-11.904 0-22.635-4.885-30.357-12.736v0l-268.352-268.309-268.736 268.779c-7.701 7.573-18.24 12.267-29.888 12.267-23.552 0-42.667-19.115-42.667-42.667 0-12.011 4.992-22.827 12.992-30.592l298.112-298.197c0.043-0.043 0.085-0.085 0.128-0.128l0.043-0.043c7.723-7.637 18.325-12.373 30.037-12.373 12.885 0 24.277 5.803 32.107 14.827l0.085-0.085 296.405 296.192c7.872 7.765 12.757 18.496 12.757 30.4 0 23.552-19.115 42.667-42.667 42.667z" data-tags="angle-double-down" />
<glyph unicode="&#xe62d;" d="M768 810.56c-7.765 0-14.976-2.24-21.248-5.867l-0.085 0.149-554.581-341.483c-12.736-7.381-21.419-21.013-21.419-36.8 0-13.141 6.059-24.725 15.36-32.533v-0.021l0.149-0.085c3.328-2.773 6.976-5.163 11.072-6.827l546.837-337.195c0.085-0.064 0.192-0.107 0.277-0.171l0.107-0.064c6.741-4.459 14.827-7.104 23.552-7.104 23.552 0 42.667 19.093 42.667 42.667v682.667c-0.021 23.552-19.136 42.667-42.688 42.667zM725.333 161.366l-431.189 265.067 431.189 265.429v-530.496z" data-tags="caret-left" />
<glyph unicode="&#xe62e;" d="M618.667 639.894c-9.856 0-18.837-3.499-26.069-9.109l-0.085 0.107-251.136-167.552c-1.6-0.917-3.136-1.941-4.587-3.072l-0.747-0.491 0.043-0.064c-9.728-7.851-16.085-19.712-16.085-33.152 0-12.032 5.035-22.869 13.056-30.635l-0.043-0.043 0.469-0.32c3.52-3.307 7.552-6.037 12.011-8l244.565-163.136c7.573-6.891 17.536-11.179 28.565-11.179 23.552 0 42.667 19.115 42.667 42.667v341.333c0.043 23.531-19.072 42.645-42.624 42.645zM576 334.848l-137.152 91.413 137.152 91.435v-182.848zM512 895.894c-259.2 0-469.333-210.133-469.333-469.333s210.133-469.333 469.333-469.333 469.333 210.133 469.333 469.333-210.133 469.333-469.333 469.333zM512 42.56c-212.053 0-383.979 171.904-383.979 384 0 212.075 171.925 384 383.979 384s384-171.925 384-384c0-212.117-171.947-384-384-384z" data-tags="caret-left-circle" />
<glyph unicode="&#xe62f;" d="M618.667 639.872c-9.856 0-18.816-3.477-26.048-9.088l-0.085 0.128-251.328-167.68c-1.472-0.875-2.901-1.813-4.267-2.837l-0.896-0.597 0.064-0.085c-9.749-7.851-16.107-19.712-16.107-33.173 0-12.032 5.035-22.848 13.035-30.613l-0.021-0.021 0.32-0.213c3.605-3.435 7.787-6.272 12.416-8.299l244.309-163.008c7.573-6.891 17.557-11.2 28.587-11.2 23.552 0 42.667 19.115 42.667 42.667v341.333c0.021 23.595-19.093 42.688-42.645 42.688zM576 334.87l-137.131 91.413 137.131 91.392v-182.805zM832 874.539h-640c-70.677 0-128-57.301-128-128v-640c0-70.677 57.323-128 128-128h640c70.677 0 128 57.344 128 128v640c0 70.699-57.323 128-128 128zM874.667 106.539c0-23.552-19.115-42.667-42.667-42.667h-640c-23.552 0-42.667 19.115-42.667 42.667v640c0 23.573 19.115 42.667 42.667 42.667h640c23.552 0 42.667-19.093 42.667-42.667v-640z" data-tags="caret-left-square" />
<glyph unicode="&#xe630;" d="M853.333 426.56c0 15.787-8.683 29.397-21.419 36.8l0.085 0.149-554.752 341.184c-6.272 3.627-13.483 5.867-21.248 5.867-23.552 0-42.667-19.115-42.667-42.667v-682.667c0-23.573 19.115-42.667 42.667-42.667 8.704 0 16.789 2.645 23.552 7.104v0l0.107 0.064c0.085 0.064 0.192 0.107 0.277 0.171l546.837 337.195c4.075 1.664 7.744 4.032 11.072 6.827l0.149 0.085v0.021c9.28 7.808 15.339 19.392 15.339 32.533zM298.667 691.862l431.189-265.429-431.189-265.067v530.496z" data-tags="caret-right" />
<glyph unicode="&#xe631;" d="M687.915 459.691l0.043 0.064-0.747 0.491c-1.451 1.131-2.987 2.133-4.587 3.072l-251.221 167.445c-7.232 5.632-16.192 9.109-26.069 9.109-23.552 0-42.667-19.115-42.667-42.667v-341.333c0-23.552 19.115-42.667 42.667-42.667 11.051 0 20.992 4.309 28.565 11.179l0.085-0.107 244.48 163.243c4.459 1.963 8.491 4.715 12.011 8l0.469 0.32-0.043 0.043c8.064 7.787 13.099 18.624 13.099 30.677 0 13.44-6.357 25.301-16.085 33.131zM448 517.696l137.152-91.435-137.152-91.413v182.848zM512 895.894c-259.2 0-469.333-210.133-469.333-469.333s210.133-469.333 469.333-469.333 469.333 210.133 469.333 469.333-210.133 469.333-469.333 469.333zM512 42.56c-212.053 0-383.979 171.904-383.979 384 0 212.075 171.925 384 383.979 384s384-171.925 384-384c0-212.117-171.947-384-384-384z" data-tags="caret-right-circle" />
<glyph unicode="&#xe632;" d="M687.893 459.691l0.064 0.085-0.896 0.597c-1.365 1.024-2.773 1.963-4.267 2.837l-251.413 167.552c-7.232 5.611-16.192 9.088-26.048 9.088-23.552 0-42.667-19.093-42.667-42.667v-341.333c0-23.552 19.115-42.667 42.667-42.667 11.051 0 21.013 4.309 28.587 11.2l0.064-0.064 244.245 163.072c4.629 2.005 8.811 4.864 12.416 8.299l0.32 0.213-0.021 0.021c8.021 7.744 13.056 18.581 13.056 30.613 0 13.461-6.357 25.323-16.107 33.152zM448 517.675l137.131-91.392-137.131-91.413v182.805zM832 874.539h-640c-70.677 0-128-57.301-128-128v-640c0-70.677 57.323-128 128-128h640c70.677 0 128 57.344 128 128v640c0 70.699-57.323 128-128 128zM874.667 106.539c0-23.552-19.115-42.667-42.667-42.667h-640c-23.552 0-42.667 19.115-42.667 42.667v640c0 23.573 19.115 42.667 42.667 42.667h640c23.552 0 42.667-19.093 42.667-42.667v-640z" data-tags="caret-right-square" />
<glyph unicode="&#xe633;" d="M888.555 194.603l-337.067 546.667c-1.685 4.139-4.096 7.851-6.912 11.221l-0.021 0.043c-7.851 9.301-19.435 15.36-32.555 15.36-15.787 0-29.419-8.683-36.8-21.419l-0.171 0.085-341.163-554.752c-3.627-6.272-5.867-13.483-5.867-21.248 0-23.573 19.115-42.667 42.667-42.667h682.667c23.552 0 42.667 19.093 42.667 42.667 0 8.917-2.752 17.195-7.445 24.043zM512.128 644.416l265.067-431.189h-530.496l265.429 431.189z" data-tags="caret-up" />
<glyph unicode="&#xe634;" d="M714.24 348.523l-163.2 244.437c-1.984 4.501-4.757 8.576-8.085 12.117l-0.299 0.448-0.043-0.043c-7.744 8.021-18.581 13.056-30.635 13.056-13.461 0-25.323-6.357-33.131-16.085l-0.064 0.043-0.491-0.747c-1.131-1.451-2.133-2.987-3.072-4.587l-167.552-251.136 0.107-0.085c-5.611-7.232-9.109-16.192-9.109-26.048 0-23.552 19.115-42.667 42.667-42.667h341.333c23.552 0 42.667 19.115 42.667 42.667 0 11.029-4.309 20.992-11.179 28.565l0.085 0.064zM512.277 499.691l91.413-137.131h-182.805l91.392 137.131zM512 895.894c-259.2 0-469.333-210.133-469.333-469.333s210.133-469.333 469.333-469.333 469.333 210.133 469.333 469.333-210.133 469.333-469.333 469.333zM512 42.56c-212.053 0-383.979 171.904-383.979 384 0 212.075 171.925 384 383.979 384s384-171.925 384-384c0-212.117-171.947-384-384-384z" data-tags="caret-up-circle" />
<glyph unicode="&#xe635;" d="M714.24 348.544l-163.221 244.459c-1.963 4.48-4.715 8.512-8.021 12.032l-0.32 0.469-0.043-0.043c-7.765 8.021-18.581 13.035-30.635 13.035-13.461 0-25.323-6.357-33.131-16.085l-0.064 0.043-0.491-0.747c-1.131-1.472-2.155-3.008-3.093-4.608l-167.552-251.136 0.107-0.085c-5.632-7.168-9.109-16.128-9.109-26.005 0-23.552 19.115-42.667 42.667-42.667h341.333c23.552 0 42.667 19.115 42.667 42.667 0 11.051-4.309 21.013-11.179 28.587l0.085 0.085zM512.277 499.691l91.435-137.173h-182.848l91.413 137.173zM832 874.539h-640c-70.677 0-128-57.301-128-128v-640c0-70.677 57.323-128 128-128h640c70.677 0 128 57.344 128 128v640c0 70.699-57.323 128-128 128zM874.667 106.539c0-23.552-19.115-42.667-42.667-42.667h-640c-23.552 0-42.667 19.115-42.667 42.667v640c0 23.573 19.115 42.667 42.667 42.667h640c23.552 0 42.667-19.093 42.667-42.667v-640z" data-tags="caret-up-square" />
<glyph unicode="&#xe636;" d="M544.597 100.651c2.816 3.371 5.227 7.061 6.891 11.179l337.109 546.731c4.672 6.827 7.403 15.104 7.403 24 0 23.552-19.115 42.667-42.667 42.667h-682.667c-23.552 0-42.667-19.115-42.667-42.667 0-7.787 2.24-14.976 5.867-21.248l-0.128-0.085 341.461-554.581c7.381-12.757 21.013-21.419 36.8-21.419 13.12 0 24.704 6.037 32.533 15.36v0l0.064 0.064zM512.128 208.683l-265.429 431.211h530.496l-265.067-431.211z" data-tags="caret-down" />
<glyph unicode="&#xe637;" d="M682.667 575.894h-341.333c-23.552 0-42.667-19.115-42.667-42.667 0-9.856 3.499-18.837 9.109-26.069l-0.107-0.085 167.552-251.115c0.939-1.621 1.941-3.157 3.093-4.629l0.491-0.725 0.064 0.043c7.829-9.749 19.669-16.085 33.131-16.085 12.032 0 22.869 5.035 30.635 13.056l0.043-0.021 0.277 0.427c3.349 3.541 6.123 7.616 8.107 12.16l163.179 244.416-0.085 0.085c6.869 7.531 11.179 17.515 11.179 28.544 0 23.552-19.115 42.667-42.667 42.667zM512.277 353.387l-91.413 137.152h182.827l-91.413-137.152zM512 895.894c-259.2 0-469.333-210.133-469.333-469.333s210.133-469.333 469.333-469.333 469.333 210.133 469.333 469.333-210.133 469.333-469.333 469.333zM512 42.56c-212.053 0-383.979 171.904-383.979 384 0 212.075 171.925 384 383.979 384s384-171.925 384-384c0-212.117-171.947-384-384-384z" data-tags="caret-down-circle" />
<glyph unicode="&#xe638;" d="M682.667 575.872h-341.333c-23.552 0-42.667-19.093-42.667-42.667 0-9.856 3.477-18.816 9.109-26.048l-0.107-0.085 167.552-251.136c0.917-1.6 1.941-3.136 3.072-4.587l0.491-0.747 0.064 0.043c7.829-9.749 19.669-16.085 33.131-16.085 12.032 0 22.869 5.035 30.635 13.056l0.043-0.043 0.299 0.448c3.328 3.541 6.101 7.595 8.085 12.117l163.2 244.437-0.085 0.085c6.869 7.552 11.179 17.515 11.179 28.544 0 23.573-19.115 42.667-42.667 42.667zM512.277 353.408l-91.413 137.131h182.784l-91.371-137.131zM832 874.539h-640c-70.677 0-128-57.301-128-128v-640c0-70.677 57.323-128 128-128h640c70.677 0 128 57.344 128 128v640c0 70.699-57.323 128-128 128zM874.667 106.539c0-23.552-19.115-42.667-42.667-42.667h-640c-23.552 0-42.667 19.115-42.667 42.667v640c0 23.573 19.115 42.667 42.667 42.667h640c23.552 0 42.667-19.093 42.667-42.667v-640z" data-tags="caret-down-square" />
<glyph unicode="&#xe639;" d="M994.624 396.096c7.915 7.744 12.843 18.517 12.843 30.464 0 11.819-4.821 22.528-12.587 30.251l-126.869 148.011c-7.787 8.405-18.837 13.76-31.189 13.76-23.552 0-42.667-19.115-42.667-42.667 0-11.797 4.8-22.485 12.544-30.208l65.6-76.459h-317.632v312.789l76.48-65.643c0.021-0.043 0.085-0.064 0.107-0.107l0.277-0.235c7.701-7.531 18.197-12.181 29.781-12.181 23.552 0 42.667 19.115 42.667 42.667 0 12.373-5.355 23.424-13.781 31.232l-147.968 126.827c-7.701 7.808-18.389 12.629-30.229 12.629-11.947 0-22.72-4.949-30.464-12.864l-0.405 0.405-141.952-122.645c-2.859-1.877-5.397-4.16-7.723-6.656l-0.363-0.341 0.064-0.043c-6.869-7.573-11.157-17.515-11.157-28.523 0-23.552 19.115-42.667 42.667-42.667 12.544 0 23.701 5.504 31.509 14.123l0.064-0.064 75.093 63.829v-312.555h-312.811l65.6 76.459c7.744 7.723 12.544 18.389 12.544 30.208 0 23.552-19.115 42.667-42.667 42.667-12.373 0-23.403-5.333-31.189-13.76l-126.891-147.989c-7.765-7.744-12.587-18.432-12.587-30.251 0-11.947 4.928-22.699 12.843-30.464l-0.405-0.427 122.667-141.952c1.877-2.859 4.16-5.397 6.677-7.723l0.32-0.363 0.043 0.064c7.573-6.848 17.493-11.136 28.523-11.136 23.552 0 42.667 19.115 42.667 42.667 0 12.544-5.504 23.701-14.144 31.531l0.043 0.043-63.808 75.093h312.576v-312.853l-76.501 65.643c-0.107 0.107-0.235 0.192-0.341 0.299l-0.064 0.064c-7.701 7.531-18.197 12.181-29.781 12.181-23.552 0-42.667-19.115-42.667-42.667 0-12.288 5.269-23.275 13.568-31.061l148.224-127.083c7.723-7.744 18.411-12.544 30.208-12.544 11.947 0 22.699 4.928 30.464 12.843l0.427-0.405 142.016 122.688c2.816 1.856 5.312 4.096 7.595 6.571l0.427 0.384-0.064 0.064c6.869 7.573 11.157 17.515 11.157 28.544 0 23.552-19.115 42.667-42.667 42.667-12.544 0-23.701-5.525-31.531-14.144l-0.064 0.043-75.072-63.765v312.533h317.355l-63.808-75.093 0.043-0.043c-8.619-7.808-14.144-18.987-14.144-31.531 0-23.552 19.115-42.667 42.667-42.667 11.029 0 20.949 4.288 28.523 11.136l0.043-0.064 0.32 0.363c2.517 2.325 4.8 4.864 6.677 7.723l122.667 141.952-0.384 0.427z" data-tags="arrows" />
<glyph unicode="&#xe63a;" d="M918.805 790.678h-0.043c0 10.923-4.16 21.867-12.501 30.208-8.384 8.384-19.413 12.523-30.421 12.459h-212.843c-11.008 0.064-22.037-4.075-30.421-12.459-16.64-16.661-16.64-43.691 0-60.331 8.363-8.363 19.285-12.523 30.229-12.501v-0.021h110.293l-261.099-261.141-259.648 259.648h110.251c0 0 0 0 0.021 0h0.448v0.043c10.752 0.128 21.483 4.245 29.696 12.437 16.683 16.704 16.661 43.691 0 60.352-8.213 8.213-18.923 12.331-29.696 12.459v0.043l-213.333-0.043c-11.051 0.107-22.123-4.032-30.549-12.459-8.341-8.341-12.501-19.307-12.501-30.251v0-213.269c0-10.923 4.16-21.845 12.48-30.187 16.661-16.661 43.691-16.661 60.331 0 8.363 8.384 12.523 19.328 12.501 30.272v110.229l259.627-259.627-259.328-259.349v110.229h-0.064c0 10.923-4.16 21.845-12.48 30.187-16.683 16.683-43.691 16.661-60.352 0-8.491-8.491-12.608-19.669-12.437-30.805v-212.011c-0.171-11.136 3.947-22.315 12.437-30.827 8.341-8.341 19.264-12.48 30.187-12.48v-0.064l213.291 0.064c10.923 0 21.845 4.16 30.187 12.48 16.64 16.661 16.64 43.691 0 60.309-8.512 8.533-19.712 12.629-30.869 12.459h-109.675l259.477 259.477 260.395-260.395h-109.525c-11.157 0.192-22.379-3.904-30.891-12.416-16.683-16.683-16.661-43.691 0-60.352 8.32-8.341 19.221-12.501 30.144-12.501v-0.064l213.355 0.085c10.88 0.021 21.781 4.181 30.080 12.48 8.341 8.32 12.48 19.243 12.48 30.187h0.085v213.248h-0.085c0 10.944-4.139 21.888-12.48 30.229-16.661 16.64-43.691 16.64-60.331 0-8.576-8.576-12.672-19.904-12.416-31.147v-109.483l-260.459 260.459 261.141 261.12v-109.888c-0.107-11.051 4.011-22.144 12.437-30.571 16.683-16.683 43.691-16.661 60.352 0 8.341 8.32 12.501 19.243 12.501 30.165h0.043v213.312z" data-tags="arrows-alt" />
<glyph unicode="&#xe63b;" d="M968.853 30.187l-205.888 205.867c56.427 69.653 90.368 158.208 90.368 254.613 0 223.509-181.824 405.333-405.333 405.333s-405.333-181.824-405.333-405.333 181.824-405.333 405.333-405.333c96.405 0 184.96 33.963 254.613 90.389l205.888-205.888c8.363-8.32 19.264-12.501 30.187-12.501s21.845 4.16 30.165 12.501c16.661 16.661 16.661 43.691 0 60.352zM128.021 490.667c0 176.448 143.552 320 320 320s320-143.552 320-320c0-87.061-35.051-166.016-91.648-223.765-0.832-0.704-1.728-1.28-2.517-2.069s-1.344-1.685-2.069-2.517c-57.749-56.597-136.704-91.648-223.765-91.648-176.448 0-320 143.552-320 320z" data-tags="magnifier" />
<glyph unicode="&#xe63c;" d="M810.667 597.227h128c23.552 0 42.667 19.115 42.667 42.667s-19.115 42.667-42.667 42.667h-128c-23.573 0-42.667 19.072-42.667 42.667v128c0 23.552-19.115 42.667-42.667 42.667s-42.667-19.115-42.667-42.667v-128c0-70.72 57.323-128 128-128zM85.333 597.227h128c70.677 0 128 57.301 128 128v128c0 23.552-19.115 42.667-42.667 42.667s-42.667-19.115-42.667-42.667v-128c0-23.595-19.093-42.667-42.667-42.667h-128c-23.552 0-42.667-19.115-42.667-42.667s19.115-42.667 42.667-42.667zM725.333-42.773c23.552 0 42.667 19.072 42.667 42.667v128c0 23.573 19.093 42.667 42.667 42.667h128c23.552 0 42.667 19.072 42.667 42.667 0 23.552-19.115 42.667-42.667 42.667h-128c-70.677 0-128-57.344-128-128v-128c0-23.595 19.115-42.667 42.667-42.667zM85.333 170.56h128c23.573 0 42.667-19.093 42.667-42.667v-128c0-23.595 19.115-42.667 42.667-42.667s42.667 19.072 42.667 42.667v128c0 70.656-57.323 128-128 128h-128c-23.552 0-42.667-19.115-42.667-42.667 0-23.595 19.115-42.667 42.667-42.667z" data-tags="compress-square" />
<glyph unicode="&#xe63d;" d="M682.667 490.667c0 23.552-19.115 42.667-42.667 42.667h-149.333v149.333c0 23.552-19.115 42.667-42.667 42.667s-42.667-19.115-42.667-42.667v-149.333h-149.333c-23.552 0-42.667-19.115-42.667-42.667s19.115-42.667 42.667-42.667h149.333v-149.333c0-23.552 19.115-42.667 42.667-42.667s42.667 19.115 42.667 42.667v149.333h149.333c23.552 0 42.667 19.115 42.667 42.667zM968.832 30.187l-205.888 205.867c56.427 69.653 90.389 158.208 90.389 254.613 0 223.509-181.824 405.333-405.333 405.333s-405.333-181.824-405.333-405.333 181.824-405.333 405.333-405.333c96.405 0 184.96 33.963 254.613 90.389l205.888-205.888c8.341-8.32 19.243-12.501 30.165-12.501s21.845 4.16 30.165 12.501c16.661 16.661 16.661 43.691 0 60.352zM128 490.667c0 176.448 143.552 320 320 320s320-143.552 320-320c0-87.061-35.051-166.016-91.648-223.765-0.832-0.704-1.728-1.28-2.517-2.069s-1.344-1.685-2.069-2.517c-57.749-56.597-136.704-91.648-223.765-91.648-176.448 0-320 143.552-320 320z" data-tags="magnifier-expand" />
<glyph unicode="&#xe63e;" d="M990.272 396.523c7.659 7.701 12.395 18.304 12.395 30.037 0 11.712-4.736 22.315-12.395 30.016v0l-0.064 0.064c-0.043 0.043-0.085 0.085-0.128 0.128l-212.672 212.565c-0.427 0.448-0.875 0.896-1.323 1.323l-0.235 0.235-0.021-0.021c-7.637 7.189-17.856 11.691-29.184 11.691-23.552 0-42.667-19.115-42.667-42.667 0-12.224 5.205-23.168 13.461-30.955l-0.021-0.021 139.605-139.691h-690.069l139.584 139.712c8.256 7.765 13.461 18.709 13.461 30.955 0 23.552-19.115 42.667-42.667 42.667-11.328 0-21.547-4.48-29.184-11.691l-0.021 0.021-0.235-0.235c-0.448-0.427-0.896-0.875-1.323-1.323l-212.672-212.565c-0.043-0.043-0.085-0.085-0.128-0.128l-0.064-0.064c-7.637-7.701-12.373-18.325-12.373-30.016 0-11.712 4.736-22.315 12.395-30.037v0l0.085-0.085c0.021-0.021 0.043-0.043 0.064-0.064l212.971-212.907c7.744-7.936 18.539-12.885 30.485-12.885 23.552 0 42.667 19.115 42.667 42.667 0 11.627-4.693 22.144-12.245 29.845l0.021 0.021-0.277 0.277c0 0 0 0 0 0l-140.565 140.501h690.133l-140.565-140.501c0 0 0 0 0 0l-0.277-0.277 0.021-0.021c-7.552-7.723-12.245-18.24-12.245-29.867 0-23.552 19.115-42.667 42.667-42.667 11.968 0 22.741 4.949 30.485 12.885l212.971 212.907c0.021 0.021 0.043 0.043 0.064 0.064l0.085 0.107z" data-tags="arrows-h" />
<glyph unicode="&#xe63f;" d="M725.333 234.56c-11.627 0-22.165-4.693-29.845-12.245l-0.021 0.021-0.235-0.235c-0.043-0.043-0.085-0.085-0.128-0.128l-140.437-140.501v690.133l140.459-140.523c0.021-0.021 0.043-0.043 0.064-0.064l0.256-0.256 0.021 0.021c7.701-7.552 18.219-12.224 29.845-12.224 23.552 0 42.667 19.115 42.667 42.667 0 11.947-4.928 22.72-12.864 30.464l-212.949 213.013c0 0 0 0 0 0l-0.128 0.128c-7.723 7.637-18.325 12.395-30.037 12.395s-22.315-4.736-30.016-12.373v0l-0.021-0.021c-0.085-0.085-0.149-0.149-0.235-0.235l-212.501-212.608c-0.448-0.427-0.896-0.875-1.323-1.323l-0.235-0.235 0.021-0.021c-7.211-7.659-11.691-17.877-11.691-29.184 0-23.552 19.115-42.667 42.667-42.667 12.224 0 23.168 5.205 30.955 13.461l0.021-0.021 139.691 139.584v-690.091l-139.712 139.584c-7.765 8.235-18.731 13.461-30.955 13.461-23.552 0-42.667-19.115-42.667-42.667 0-11.328 4.48-21.547 11.691-29.184l-0.021-0.021 0.213-0.213c0.448-0.448 0.896-0.896 1.344-1.344l212.523-212.629c0.043-0.043 0.107-0.107 0.149-0.149l0.064-0.064c7.723-7.637 18.304-12.373 30.016-12.373s22.315 4.736 30.016 12.373h0.021l213.013 213.099c8 7.723 12.971 18.539 12.971 30.528 0 23.552-19.115 42.667-42.667 42.667z" data-tags="arrows-v" />
<glyph unicode="&#xe640;" d="M417.835 392.747v0 0 0 0l-225.749-225.771v152.917h-0.064c0 10.923-4.16 21.824-12.48 30.165-16.683 16.683-43.691 16.661-60.352 0-8.491-8.491-12.608-19.669-12.437-30.805v-254.677c-0.171-11.136 3.947-22.315 12.437-30.827 8.341-8.341 19.264-12.48 30.187-12.48v-0.064l255.979 0.064c10.923 0 21.845 4.16 30.187 12.48 16.64 16.661 16.64 43.669 0 60.331-8.512 8.512-19.733 12.629-30.869 12.437h-152.363l225.856 225.856c16.661 16.661 16.661 43.648 0 60.331-16.64 16.64-43.648 16.661-60.331 0.043zM917.333 789.227h-0.043c0 10.923-4.16 21.845-12.501 30.187s-19.307 12.501-30.251 12.48h-255.765c-10.965 0.021-21.931-4.117-30.272-12.48-16.64-16.683-16.64-43.669 0-60.352 8.341-8.341 19.264-12.501 30.187-12.501v0h152.96l-225.237-225.344c-0.192-0.171-0.427-0.299-0.597-0.491-16.64-16.661-16.619-43.669 0-60.331 16.683-16.704 43.691-16.661 60.352 0 0.192 0.192 0.299 0.405 0.469 0.597l0.064-0.064 225.301 225.28v-152.576c-0.107-11.051 4.011-22.144 12.437-30.571 16.683-16.683 43.691-16.661 60.352 0 8.341 8.341 12.501 19.243 12.501 30.165h0.043v256z" data-tags="expand" />
<glyph unicode="&#xe641;" d="M926.101 840.726c-16.683 16.683-43.691 16.661-60.352 0-0.192-0.192-0.299-0.405-0.491-0.597l-0.043 0.043-225.301-225.301v152.597c0.107 11.051-4.011 22.144-12.437 30.571-16.683 16.683-43.691 16.661-60.352 0-8.341-8.32-12.501-19.221-12.501-30.144h-0.043v-256h0.043c0-10.923 4.16-21.845 12.501-30.208 8.384-8.384 19.392-12.501 30.4-12.459h255.488c11.008-0.064 22.016 4.075 30.421 12.459 16.64 16.704 16.64 43.712 0 60.352-8.341 8.341-19.264 12.501-30.187 12.501v0.021h-152.96l225.237 225.323c0.192 0.192 0.427 0.32 0.619 0.491 16.597 16.683 16.576 43.669-0.043 60.352zM456.747 371.286c-8.341 8.341-19.264 12.501-30.187 12.501v0.107l-255.979-0.107c-10.923 0-21.845-4.16-30.187-12.501-16.64-16.661-16.64-43.648 0-60.309 8.555-8.555 19.84-12.651 31.061-12.416h152.213l-225.899-225.899c-16.661-16.619-16.661-43.605 0-60.331 16.64-16.619 43.691-16.661 60.352 0 0.021 0.021 0.064 0.085 0.085 0.107l225.643 225.643v-152.917h0.064c0-10.923 4.16-21.824 12.48-30.165 16.683-16.661 43.691-16.661 60.352 0 8.491 8.491 12.608 19.691 12.437 30.805v254.656c0.171 11.136-3.925 22.315-12.437 30.827z" data-tags="compress" />
<glyph unicode="&#xe642;" d="M66.176 469.163c0.021 0.256 0.021 0.576 0.043 0.896 0-0.256-0.064-0.491-0.064-0.725 0-0.085 0.021-0.171 0.021-0.171zM938.688 853.334c-23.552 0-42.667-19.093-42.667-42.667v-154.517c-78.357 130.581-220.907 218.517-384 218.517-229.269 0-418.581-173.227-444.651-395.584-0.171-1.493-0.512-2.944-0.683-4.437-0.192-1.515-0.427-3.029-0.448-4.565-0.021-0.32-0.021-0.64-0.043-0.981 0.128-23.552 19.264-42.624 42.859-42.624 21.077 0 38.528 15.253 42.112 35.285 0.213 1.28 0.256 2.539 0.384 3.819 19.435 181.739 173.632 323.755 360.469 323.755 138.304 0 258.667-77.867 319.829-192h-149.163c-23.552 0-42.667-19.093-42.667-42.667 0-23.552 19.115-42.667 42.667-42.667h256c23.552 0 42.667 19.115 42.667 42.667v256c0 23.573-19.115 42.667-42.667 42.667zM915.051 426.987c-20.715 0-37.995-14.656-42.069-34.176-0.448-2.219-0.597-4.48-0.725-6.827-20.309-180.885-174.037-321.984-360.235-321.984-138.304 0-258.667 77.845-319.829 192h149.163c23.552 0 42.667 19.115 42.667 42.667 0 23.573-19.115 42.667-42.667 42.667h-256c-23.552 0-42.667-19.093-42.667-42.667v-256.149c0.085-23.488 19.136-42.517 42.667-42.517s42.581 19.029 42.667 42.517v0 154.624c78.357-130.581 220.907-218.475 384-218.475 228.949 0 418.048 172.736 444.523 394.667 0.875 3.456 1.493 6.976 1.493 10.667 0 0.384-0.107 0.768-0.107 1.131-0.619 23.232-19.541 41.856-42.88 41.856z" data-tags="refresh" />
<glyph unicode="&#xe643;" d="M512 383.894c23.573 0 42.667 19.093 42.667 42.667v426.667c0 23.531-19.093 42.667-42.667 42.667-23.552 0-42.667-19.136-42.667-42.667v-426.667c0-23.573 19.115-42.667 42.667-42.667zM905.131 549.974c-10.709 25.301-23.979 49.664-39.381 72.491-15.232 22.592-32.747 43.84-52.032 63.125-16.661 16.661-43.669 16.661-60.331 0-16.661-16.683-16.661-43.669 0-60.331 31.339-31.381 55.979-67.883 73.173-108.501 17.771-42.048 26.773-86.763 26.773-132.864 0-46.080-9.003-90.795-26.795-132.864-17.195-40.619-41.835-77.12-73.173-108.501-31.36-31.339-67.861-55.979-108.48-73.173-42.091-17.771-86.784-26.816-132.885-26.816-46.080 0-90.773 9.045-132.885 26.816-40.619 17.195-77.12 41.835-108.459 73.173-31.381 31.381-56 67.883-73.195 108.501-17.792 42.069-26.795 86.784-26.795 132.864 0 46.101 9.003 90.816 26.795 132.864 17.195 40.64 41.813 77.12 73.195 108.459 16.64 16.704 16.64 43.712 0 60.395-16.704 16.661-43.712 16.661-60.373 0-19.307-19.285-36.843-40.533-52.032-63.125-15.424-22.827-28.672-47.211-39.381-72.491-22.251-52.651-33.536-108.501-33.536-166.101 0-57.579 11.307-113.429 33.536-166.101 10.709-25.259 23.979-49.643 39.381-72.491 15.211-22.571 32.747-43.819 52.032-63.104 19.285-19.307 40.533-36.843 63.104-52.053 22.827-15.403 47.211-28.651 72.491-39.381 52.629-22.229 108.501-33.515 166.080-33.515s113.472 11.285 166.101 33.515c25.301 10.731 49.664 23.979 72.491 39.381 22.571 15.211 43.84 32.747 63.104 52.053 19.307 19.285 36.8 40.533 52.032 63.104 15.424 22.848 28.672 47.232 39.381 72.491 22.293 52.672 33.6 108.523 33.6 166.101 0 57.6-11.307 113.451-33.536 166.080z" data-tags="power-off" />
<glyph unicode="&#xe644;" d="M896 85.227h-213.333c-15.339 0-29.461 8.192-37.035 21.483l-329.045 575.851h-188.587c-23.552 0-42.667 19.093-42.667 42.667 0 23.552 19.115 42.667 42.667 42.667h213.333c15.339 0 29.461-8.213 37.035-21.483l329.045-575.851h188.587c23.573 0 42.667-19.115 42.667-42.667s-19.093-42.667-42.667-42.667zM853.333 725.227c0 23.552-19.093 42.667-42.667 42.667h-213.333c-23.573 0-42.667-19.115-42.667-42.667 0-23.573 19.093-42.667 42.667-42.667h213.333c23.573 0 42.667 19.093 42.667 42.667z" data-tags="alt" />
<glyph unicode="&#xe645;" d="M768 341.227h-85.333v170.667h85.333c94.251 0 170.667 76.416 170.667 170.645 0 94.293-76.416 170.688-170.667 170.688s-170.667-76.416-170.667-170.688v-85.291h-170.667v85.291c0 94.293-76.395 170.688-170.667 170.688-94.251 0-170.667-76.416-170.667-170.688 0-94.229 76.416-170.645 170.667-170.645h85.333v-170.667h-85.333c-94.251 0-170.667-76.437-170.667-170.645 0-94.293 76.416-170.688 170.667-170.688s170.667 76.395 170.667 170.688v85.291h170.667v-85.099c0-0.107 0-0.128 0-0.192 0-94.293 76.395-170.688 170.667-170.688 94.251 0 170.667 76.395 170.667 170.688 0 94.229-76.416 170.603-170.667 170.645zM682.667 682.539c0 47.168 38.229 85.355 85.333 85.355 47.125 0 85.333-38.208 85.333-85.355 0-47.125-38.208-85.291-85.333-85.291h-85.333v85.291zM341.333 170.582c0-47.168-38.229-85.355-85.333-85.355-47.125 0-85.333 38.187-85.333 85.355 0 47.104 38.208 85.291 85.333 85.291h85.333v-85.291zM341.333 597.248h-85.333c-47.125 0-85.333 38.165-85.333 85.291 0 47.168 38.208 85.355 85.333 85.355 47.104 0 85.333-38.208 85.333-85.355v-85.291zM597.333 341.227h-170.667v170.667h170.667v-170.667zM768 85.227c-47.104 0-85.333 38.187-85.333 85.355v85.291h85.333c47.125 0 85.333-38.165 85.333-85.291 0-47.168-38.208-85.355-85.333-85.355z" data-tags="command" />
<glyph unicode="&#xe646;" d="M522.667-42.773c-58.155 0-114.773 10.752-168.427 31.936-51.797 20.395-99.029 49.877-140.352 87.531-84.011 76.544-136.448 180.736-147.605 293.376-2.283 22.933 14.4 43.328 37.376 45.632 22.891 2.24 43.307-14.464 45.547-37.397 9.173-92.096 52.096-177.323 120.832-239.936 33.835-30.848 72.469-54.955 114.816-71.637 43.861-17.344 90.219-26.091 137.792-26.091 50.667 0 99.84 9.92 146.069 29.461 22.229 9.429 43.691 21.013 63.723 34.603 19.883 13.44 38.613 28.843 55.573 45.824 16.981 17.024 32.427 35.733 45.845 55.595 13.568 20.032 25.173 41.493 34.581 63.723 19.563 46.229 29.483 95.403 29.483 146.069 0 47.616-8.789 93.952-26.091 137.792-16.704 42.368-40.853 81.003-71.616 114.837-62.656 68.715-147.84 111.637-239.957 120.789-22.912 2.219-39.659 22.677-37.376 45.547 2.283 22.933 22.677 39.68 45.611 37.376 112.683-11.136 216.832-63.595 293.376-147.563 37.632-41.344 67.115-88.576 87.552-140.373 21.163-53.653 31.915-110.315 31.915-168.427 0-61.888-12.139-121.984-36.032-178.539-11.541-27.221-25.749-53.397-42.304-77.952-16.427-24.277-35.264-47.125-56-67.861-20.736-20.715-43.563-39.573-67.883-56-24.512-16.555-50.752-30.763-77.888-42.283-56.576-23.915-116.672-36.032-178.56-36.032zM552.149 445.376l-345.792 345.792h149.525c23.040 0 41.707 18.688 41.707 41.685 0 23.019-18.667 41.707-41.707 41.707h-250.176c-23.019 0-41.707-18.688-41.707-41.707v-250.176c0-23.061 18.688-41.664 41.707-41.664 23.061 0 41.707 18.603 41.707 41.664v149.525l345.792-345.792c8.128-8.149 18.795-12.224 29.461-12.224s21.333 4.075 29.483 12.224c16.299 16.299 16.299 42.667 0 58.965z" data-tags="esc" />
<glyph unicode="&#xe647;" d="M776 367.915h-528c-113.408 0-205.333-91.925-205.333-205.333 0-113.387 91.925-205.333 205.333-205.333h528c113.408 0 205.333 91.947 205.333 205.333 0 113.408-91.925 205.333-205.333 205.333zM607.616 45.248h-359.616c-64.704 0-117.333 52.608-117.333 117.333s52.629 117.333 117.333 117.333h359.616c-23.232-33.28-36.949-73.707-36.949-117.333 0-43.648 13.717-84.053 36.949-117.333zM776 45.248c-64.704 0-117.333 52.608-117.333 117.333s52.629 117.333 117.333 117.333 117.333-52.608 117.333-117.333c0-64.747-52.629-117.333-117.333-117.333zM248 485.248h528c113.408 0 205.333 91.947 205.333 205.312 0 113.429-91.925 205.355-205.333 205.355h-528c-113.408 0-205.333-91.925-205.333-205.355 0-113.387 91.925-205.312 205.333-205.312zM416.384 807.894h359.616c64.704 0 117.333-52.587 117.333-117.333 0-64.683-52.629-117.333-117.333-117.333h-359.616c23.232 33.323 36.949 73.707 36.949 117.333 0 43.648-13.717 84.075-36.949 117.333zM248 807.894c64.704 0 117.333-52.587 117.333-117.333 0-64.683-52.629-117.333-117.333-117.333s-117.333 52.651-117.333 117.333c0 64.725 52.629 117.333 117.333 117.333z" data-tags="toggle" />
<glyph unicode="&#xe648;" d="M682.667 767.872h-341.333c-188.48 0-341.333-152.832-341.333-341.333 0-188.459 152.853-341.333 341.333-341.333h341.333c188.48 0 341.333 152.875 341.333 341.333 0 188.501-152.853 341.333-341.333 341.333zM682.667 170.539h-341.333c-141.355 0-256 114.645-256 256 0 141.397 114.624 256 256 256h341.333c141.355 0 256-114.603 256-256 0-141.355-114.645-256-256-256zM341.333 597.206c-94.229 0-170.667-76.395-170.667-170.667 0-94.229 76.416-170.667 170.667-170.667s170.667 76.437 170.667 170.667c0 94.272-76.437 170.667-170.667 170.667zM341.333 341.206c-47.125 0-85.333 38.229-85.333 85.333s38.208 85.333 85.333 85.333 85.333-38.229 85.333-85.333-38.208-85.333-85.333-85.333z" data-tags="toggle-off" />
<glyph unicode="&#xe649;" d="M0 426.539c0-188.459 152.853-341.333 341.333-341.333h341.333c188.48 0 341.333 152.875 341.333 341.333 0 188.501-152.853 341.333-341.333 341.333h-341.333c-188.48 0-341.333-152.832-341.333-341.333zM85.333 426.539c0 141.397 114.645 256 256 256h341.333c141.355 0 256-114.603 256-256 0-141.355-114.624-256-256-256h-341.333c-141.355 0-256 114.645-256 256zM512 426.539c0-94.229 76.437-170.667 170.667-170.667s170.667 76.437 170.667 170.667c0 94.272-76.416 170.667-170.667 170.667s-170.667-76.395-170.667-170.667zM597.333 426.539c0 47.104 38.229 85.333 85.333 85.333s85.333-38.229 85.333-85.333-38.208-85.333-85.333-85.333-85.333 38.229-85.333 85.333z" data-tags="toggle-on" />
<glyph unicode="&#xe64a;" d="M512 810.56c-341.333 0-512-385.749-512-385.749s170.667-382.251 512-382.251 512 384 512 384-170.667 384-512 384zM512 127.894c-225.557 0-367.979 212.075-415.979 297.067 47.979 85.845 190.421 300.267 415.979 300.267 225.6 0 368.021-213.333 415.979-298.667-48.043-85.504-190.443-298.667-415.979-298.667zM512 597.27c-94.251 0-170.667-76.459-170.667-170.709 0-94.272 76.437-170.667 170.667-170.667s170.667 76.395 170.667 170.667c0 94.251-76.416 170.709-170.667 170.709zM512 341.227c-47.061 0-85.333 38.229-85.333 85.333 0 47.040 38.251 85.333 85.333 85.333s85.333-38.293 85.333-85.333c0-47.104-38.272-85.333-85.333-85.333z" data-tags="eye" />
<glyph unicode="&#xe64b;" d="M170.667 554.56c-70.677 0-128-57.344-128-128 0-70.699 57.344-128 128-128 70.699 0 128 57.301 128 128 0 70.656-57.301 128-128 128zM170.667 383.894c-23.573 0-42.667 19.072-42.667 42.667 0 23.552 19.093 42.667 42.667 42.667s42.667-19.115 42.667-42.667c0-23.595-19.093-42.667-42.667-42.667zM512 554.56c-70.677 0-128-57.344-128-128 0-70.699 57.344-128 128-128 70.699 0 128 57.301 128 128 0 70.656-57.301 128-128 128zM512 383.894c-23.573 0-42.667 19.072-42.667 42.667 0 23.552 19.093 42.667 42.667 42.667s42.667-19.115 42.667-42.667c0-23.595-19.093-42.667-42.667-42.667zM853.333 554.56c-70.677 0-128-57.344-128-128 0-70.699 57.344-128 128-128 70.699 0 128 57.301 128 128 0 70.656-57.301 128-128 128zM853.333 383.894c-23.573 0-42.667 19.072-42.667 42.667 0 23.552 19.093 42.667 42.667 42.667s42.667-19.115 42.667-42.667c0-23.595-19.093-42.667-42.667-42.667z" data-tags="ellipsis-h" />
<glyph unicode="&#xe64c;" d="M639.893 768c0 70.677-57.344 128-128 128-70.699 0-128-57.344-128-128 0-70.699 57.301-128 128-128 70.656 0 128 57.301 128 128zM469.227 768c0 23.573 19.072 42.667 42.667 42.667 23.552 0 42.667-19.093 42.667-42.667s-19.115-42.667-42.667-42.667c-23.595 0-42.667 19.093-42.667 42.667zM639.893 426.667c0 70.677-57.344 128-128 128-70.699 0-128-57.344-128-128 0-70.699 57.301-128 128-128 70.656 0 128 57.301 128 128zM469.227 426.667c0 23.573 19.072 42.667 42.667 42.667 23.552 0 42.667-19.093 42.667-42.667s-19.115-42.667-42.667-42.667c-23.595 0-42.667 19.093-42.667 42.667zM639.893 85.334c0 70.677-57.344 128-128 128-70.699 0-128-57.344-128-128 0-70.699 57.301-128 128-128 70.656 0 128 57.301 128 128zM469.227 85.334c0 23.573 19.072 42.667 42.667 42.667 23.552 0 42.667-19.093 42.667-42.667s-19.115-42.667-42.667-42.667c-23.595 0-42.667 19.093-42.667 42.667z" data-tags="ellipsis-v" />
<glyph unicode="&#xe64d;" d="M512.021 895.979c-259.2 0-469.333-210.133-469.333-469.333s210.133-469.333 469.333-469.333 469.333 210.133 469.333 469.333-210.133 469.333-469.333 469.333zM512.021 42.646c-212.053 0-383.979 171.925-383.979 384s171.925 384 383.979 384 384-171.925 384-384-171.947-384-384-384zM672.128 412.374l-0.043 0.043-117.397-117.397v366.293c0 10.923-4.16 21.824-12.501 30.165-16.661 16.661-43.691 16.661-60.331 0-8.789-8.789-12.8-20.416-12.331-31.936v-364.565l-117.483 117.376c-16.683 16.661-43.669 16.64-60.331 0-16.64-16.64-16.64-43.669 0-60.352 0.128-0.128 0.32-0.235 0.448-0.384l189.845-189.824c16.661-16.661 43.691-16.661 60.352 0 0.299 0.299 0.491 0.661 0.789 0.96l188.885 188.864c0.128 0.149 0.32 0.235 0.448 0.384 16.64 16.683 16.64 43.712 0 60.352-16.661 16.661-43.669 16.661-60.352 0.021z" data-tags="download-circle" />
<glyph unicode="&#xe64e;" d="M987.584 481.536l-426.667 361.643c-12.651 10.752-30.421 13.163-45.525 6.165-15.083-6.976-24.725-22.080-24.725-38.699v-178.773c-530.731-121.643-489.835-548.651-489.344-553.045 2.005-18.027 15.189-32.811 32.875-36.864 3.179-0.725 6.379-1.088 9.536-1.088 14.443 0 28.203 7.36 36.117 19.947 102.763 163.371 324.117 189.824 410.816 193.771v-169.28c0-16.64 9.685-31.787 24.789-38.741 15.104-6.976 32.896-4.523 45.568 6.251l426.667 363.691c9.536 8.128 15.019 20.011 14.997 32.533-0.021 12.544-5.547 24.405-15.104 32.491zM576 177.75v119.893c0 22.699-17.877 41.429-40.555 42.624 0 0-6.421 0.341-17.941 0.341-69.035 0-271.893-11.136-418.965-131.648 30.848 117.163 130.475 285.504 442.987 346.517 20.011 3.861 34.475 21.419 34.475 41.835v121.237l318.123-269.632-318.123-271.168z" data-tags="share" />
<glyph unicode="&#xe64f;" d="M931.499 488.363c0.683 1.003 1.131 2.112 1.728 3.157 0.768 1.365 1.6 2.709 2.197 4.16 0.576 1.387 0.896 2.859 1.323 4.267 0.363 1.259 0.853 2.411 1.088 3.691 1.088 5.525 1.088 11.179 0 16.704-0.256 1.28-0.725 2.453-1.088 3.691-0.427 1.429-0.747 2.88-1.323 4.267-0.597 1.451-1.429 2.795-2.197 4.16-0.576 1.045-1.045 2.155-1.728 3.157-1.579 2.347-3.349 4.565-5.355 6.549l-255.979 256c-16.64 16.661-43.691 16.661-60.331 0-16.661-16.661-16.661-43.648 0-60.331l183.147-183.168h-366.315c-229.696 0-384-154.304-384-384v-42.667c0-23.552 19.115-42.667 42.667-42.667s42.667 19.115 42.667 42.667v42.667c0 184.235 114.432 298.667 298.667 298.667h366.315l-183.147-183.168c-16.661-16.661-16.661-43.648 0-60.331 8.32-8.341 19.243-12.501 30.165-12.501s21.845 4.16 30.165 12.501l255.979 255.957c1.984 1.984 3.776 4.203 5.355 6.571z" data-tags="share-l" />
<glyph unicode="&#xe650;" d="M512.021 895.979c-259.2 0-469.333-210.133-469.333-469.333s210.133-469.333 469.333-469.333 469.333 210.133 469.333 469.333-210.133 469.333-469.333 469.333zM512.021 42.646c-212.053 0-383.979 171.925-383.979 384s171.925 384 383.979 384 384-171.925 384-384-171.947-384-384-384zM732.075 501.611l-188.928 188.885c-0.299 0.32-0.491 0.661-0.789 0.981-16.661 16.661-43.691 16.661-60.352 0v0 0l-189.888-189.867c-0.128-0.128-0.277-0.213-0.405-0.341-16.64-16.661-16.64-43.691 0-60.352 16.661-16.661 43.669-16.661 60.331 0l0.043-0.043 117.44 117.419v-364.565c-0.469-11.499 3.563-23.125 12.331-31.936 16.64-16.661 43.669-16.661 60.331 0 8.341 8.341 12.501 19.243 12.501 30.187v0 366.272l117.44-117.333c16.661-16.64 43.669-16.661 60.331 0 16.64 16.661 16.64 43.669 0 60.352-0.107 0.128-0.256 0.213-0.384 0.341z" data-tags="upload-circle" />
<glyph unicode="&#xe651;" d="M269.611 395.563l212.032-212.203c7.744-7.829 18.475-12.715 30.357-12.715 11.712 0 22.315 4.757 30.037 12.395v0l213.184 213.227c0.171 0.171 0.341 0.341 0.512 0.512l0.64 0.619-0.064 0.064c7.211 7.637 11.691 17.856 11.691 29.184 0 23.573-19.115 42.667-42.667 42.667-12.053 0-22.912-5.035-30.677-13.099l-0.043 0.043-139.947-140.011v537.067c0 23.573-19.115 42.667-42.667 42.667s-42.667-19.093-42.667-42.667v-537.003l-139.989 139.904c-7.765 8.064-18.624 13.099-30.677 13.099-23.552 0-42.667-19.093-42.667-42.667 0-12.288 5.291-23.296 13.611-31.083zM938.667 213.312c0 23.552-19.115 42.645-42.667 42.645s-42.645-19.093-42.667-42.645v0-149.333c0-11.797-9.557-21.333-21.333-21.333h-640c-11.776 0-21.333 9.536-21.333 21.333v149.333c0 23.552-19.115 42.645-42.667 42.645s-42.645-19.093-42.667-42.645v0-170.667c0-47.125 38.208-85.333 85.333-85.333h682.667c15.616 0 30.080 4.501 42.667 11.819 25.387 14.805 42.667 42.005 42.667 73.515v170.667z" data-tags="download" />
<glyph unicode="&#xe652;" d="M298.603 597.312c12.053 0 22.912 5.056 30.677 13.099l0.043-0.043 139.947 140.011v-537.045c0-23.573 19.115-42.667 42.667-42.667s42.667 19.093 42.667 42.667v536.96l139.989-139.904c7.765-8.043 18.624-13.099 30.677-13.099 23.552 0 42.667 19.093 42.667 42.667 0 12.352-5.333 23.36-13.717 31.147l-211.904 212.096c-7.744 7.872-18.475 12.779-30.379 12.779-11.712 0-22.315-4.757-30.037-12.395v0l-0.107-0.107c0 0-0.021-0.043-0.021-0.043l-213.013-213.056c-0.192-0.192-0.384-0.384-0.576-0.576l-0.597-0.597 0.064-0.043c-7.211-7.659-11.691-17.899-11.691-29.205-0.021-23.552 19.072-42.645 42.645-42.645zM938.603 213.312c0 23.552-19.115 42.645-42.667 42.645s-42.645-19.093-42.667-42.645v0-149.333c0-11.797-9.557-21.333-21.333-21.333h-640c-11.776 0-21.333 9.536-21.333 21.333v149.333c0 23.552-19.115 42.645-42.667 42.645s-42.645-19.093-42.667-42.645v0-170.667c0-47.125 38.208-85.333 85.333-85.333h682.667c15.616 0 30.080 4.501 42.667 11.819 25.387 14.805 42.667 42.005 42.667 73.515v170.667z" data-tags="upload" />
<glyph unicode="&#xe653;" d="M248.597 629.952l233.088-233.301c7.723-7.829 18.453-12.693 30.315-12.693 11.712 0 22.315 4.757 30.016 12.373h0.021l234.347 234.432c0.277 0.299 0.555 0.555 0.853 0.853l0.064 0.064c7.424 7.701 12.032 18.112 12.032 29.632 0 23.573-19.115 42.667-42.667 42.667-11.243 0-21.397-4.437-29.035-11.563l-0.085 0.085-0.981-0.981c-0.021-0.021-0.064-0.085-0.107-0.107l-161.792-161.856v366.421c0 23.573-19.115 42.667-42.667 42.667s-42.667-19.093-42.667-42.667v-366.379l-161.408 161.365c-7.765 8-18.581 12.992-30.592 12.992-23.552 0-42.667-19.093-42.667-42.667 0-12.437 5.419-23.552 13.931-31.339zM810.667 341.312h-597.333c-70.677 0-128-57.323-128-128v-170.667c0-70.677 57.323-128 128-128h597.333c70.677 0 128 57.323 128 128v170.667c0 70.677-57.323 128-128 128zM853.333 42.646c0-23.573-19.115-42.667-42.667-42.667h-597.333c-23.552 0-42.667 19.093-42.667 42.667v170.667c0 23.552 19.115 42.667 42.667 42.667h597.333c23.552 0 42.667-19.115 42.667-42.667v-170.667zM768 170.646h-512c-23.552 0-42.667-19.115-42.667-42.667 0-23.573 19.115-42.667 42.667-42.667h512c23.552 0 42.667 19.093 42.667 42.667s-19.115 42.667-42.667 42.667z" data-tags="download-disk" />
<glyph unicode="&#xe654;" d="M277.355 618.667c12.011 0 22.827 4.992 30.571 12.971l0.021-0.021 161.387 161.387v-366.357c0-23.573 19.115-42.667 42.667-42.667s42.667 19.093 42.667 42.667v366.421l161.813-161.899c0-0.021 0.021-0.021 0.021-0.021l1.024-1.045 0.085 0.085c7.616-7.104 17.771-11.541 29.035-11.541 23.552 0 42.667 19.093 42.667 42.667 0 11.499-4.608 21.931-12.032 29.632v0l-0.043 0.021c-0.299 0.32-0.597 0.619-0.896 0.896l-234.283 234.432c-7.723 7.637-18.325 12.373-30.037 12.373-11.883 0-22.613-4.885-30.357-12.736l-233.067-233.28c-8.491-7.808-13.909-18.901-13.909-31.317 0-23.595 19.093-42.667 42.667-42.667zM810.688 341.312h-597.333c-70.677 0-128-57.323-128-128v-170.667c0-70.677 57.323-128 128-128h597.333c70.677 0 128 57.323 128 128v170.667c0 70.677-57.323 128-128 128zM853.355 42.646c0-23.573-19.115-42.667-42.667-42.667h-597.333c-23.552 0-42.667 19.093-42.667 42.667v170.667c0 23.552 19.115 42.667 42.667 42.667h597.333c23.552 0 42.667-19.115 42.667-42.667v-170.667zM768.021 170.646h-512c-23.552 0-42.667-19.115-42.667-42.667 0-23.573 19.115-42.667 42.667-42.667h512c23.552 0 42.667 19.093 42.667 42.667s-19.115 42.667-42.667 42.667z" data-tags="upload-disk" />
<glyph unicode="&#xe655;" d="M764.352 765.888c-10.667 14.72-27.733 23.445-45.909 23.445h-412.885c-18.176 0-35.221-8.725-45.909-23.445l-216.981-268.139v-440.875c0-31.403 25.408-56.875 56.768-56.875h825.152c31.339 0 56.747 25.472 56.747 56.875v440.875l-216.981 268.139zM320 703.979h384l151.424-177.749h-130.581c-11.285 0-22.123-4.501-30.101-12.523l-101.035-101.291h-163.413l-101.056 101.291c-7.979 8.021-18.795 12.523-30.101 12.523h-130.56l151.424 177.749zM896.192 85.312h-768.384v355.584h153.728l101.035-101.312c8-7.979 18.795-12.501 30.101-12.501h198.656c11.285 0 22.123 4.523 30.101 12.501l101.035 101.312h153.728v-355.584z" data-tags="archive" />
<glyph unicode="&#xe656;" d="M246.699 631.702l0.107-0.107c0.256-0.277 0.512-0.512 0.768-0.789l234.389-234.453c7.723-7.637 18.304-12.395 30.037-12.395 11.883 0 22.613 4.885 30.357 12.715l233.003 233.237c8.533 7.808 13.973 18.923 13.973 31.381 0 23.573-19.115 42.667-42.667 42.667-12.011 0-22.827-4.992-30.571-12.971l-0.021 0.021-161.408-161.365v366.357c0 23.573-19.115 42.667-42.667 42.667s-42.667-19.093-42.667-42.667v-366.421l-161.728 161.813c-0.085 0.064-0.171 0.149-0.256 0.235l-0.896 0.896-0.085-0.085c-7.616 7.125-17.792 11.563-29.035 11.563-23.552 0-42.667-19.093-42.667-42.667 0-11.52 4.629-21.931 12.032-29.632v0zM968.853 371.499l-149.333 149.333c-16.64 16.661-43.691 16.661-60.331 0-16.661-16.661-16.661-43.669 0-60.331l62.293-62.293h-96.619c-11.285 0-22.123-4.501-30.101-12.523l-101.035-101.269h-163.435l-101.056 101.269c-7.979 8.021-18.795 12.523-30.101 12.523h-96.597l62.293 62.293c16.661 16.661 16.661 43.669 0 60.331-16.64 16.661-43.691 16.661-60.331 0l-149.333-149.333c-8.341-8.341-12.501-19.264-12.501-30.165v-327.147c0-31.403 25.408-56.875 56.768-56.875h825.152c31.339 0 56.768 25.472 56.768 56.875v327.232c-0.043 10.923-4.203 21.76-12.501 30.080zM896.192 42.624h-768.384v270.251h153.728l101.035-101.291c8-7.979 18.795-12.501 30.101-12.501h198.656c11.285 0 22.123 4.523 30.101 12.501l101.035 101.291h153.728v-270.251z" data-tags="download-my" />
<glyph unicode="&#xe657;" d="M140.821 694.87v0l340.821-383.488c0.107-0.107 0.192-0.213 0.299-0.32l0.064-0.064c7.701-7.659 18.304-12.395 30.037-12.395 12.885 0 24.277 5.824 32.085 14.848l0.085-0.085 339.264 381.717c0.064 0.064 0.128 0.128 0.192 0.192l0.128 0.149c7.552 7.701 12.224 18.219 12.224 29.845 0 23.573-19.115 42.667-42.667 42.667-11.819 0-22.528-4.821-30.251-12.587h-0.021l-311.061-349.952-310.976 349.845c-0.085 0.085-0.149 0.192-0.235 0.256l-0.213 0.256-0.064-0.043c-7.68 7.552-18.219 12.245-29.845 12.245-23.552 0-42.667-19.093-42.667-42.667 0-11.925 4.907-22.677 12.8-30.421zM896.021 170.624h-768c-23.552 0-42.667-19.093-42.667-42.667 0-23.552 19.115-42.667 42.667-42.667h768c23.552 0 42.667 19.115 42.667 42.667 0 23.573-19.115 42.667-42.667 42.667z" data-tags="download-bottom" />
<glyph unicode="&#xe658;" d="M140.821 694.87v0l335.445-419.371c1.664-2.581 3.541-4.949 5.696-7.104l0.043-0.043c7.701-7.659 18.304-12.395 30.037-12.395 12.885 0 24.277 5.824 32.085 14.848l0.085-0.085 339.584 424.725c7.552 7.701 12.224 18.219 12.224 29.845 0 23.573-19.115 42.667-42.667 42.667h-682.667c-23.552 0-42.667-19.093-42.667-42.667 0-11.925 4.907-22.677 12.8-30.421zM512.085 366.55l-252.971 316.075h505.771l-252.8-316.075zM896.021 127.958h-768c-23.552 0-42.667-19.093-42.667-42.667 0-23.552 19.115-42.667 42.667-42.667h768c23.552 0 42.667 19.115 42.667 42.667 0 23.573-19.115 42.667-42.667 42.667z" data-tags="download-caret" />
<glyph unicode="&#xe659;" d="M640.021 810.624c-167.125 0-308.885-106.965-361.643-256h-22.357c-141.376 0-256-114.624-256-256s114.624-256 256-256h384c212.053 0 384 171.904 384 384s-171.947 384-384 384zM640.021 127.958h-384c-94.229 0-170.667 76.437-170.667 170.667s76.437 170.667 170.667 170.667h88.768c3.115 21.76 8.512 42.731 16.064 62.699 2.923 7.701 6.208 15.232 9.707 22.635 47.936 100.843 150.443 170.667 269.461 170.667 164.992 0 298.667-133.675 298.667-298.667 0-164.971-133.675-298.667-298.667-298.667z" data-tags="cloud" />
<glyph unicode="&#xe65a;" d="M640.021 810.624c-167.125 0-308.885-106.965-361.643-256h-22.357c-141.376 0-256-114.624-256-256s114.624-256 256-256h128c23.552 0 42.667 19.115 42.667 42.667 0 23.573-19.115 42.667-42.667 42.667h-128c-94.229 0-170.667 76.437-170.667 170.667s76.437 170.667 170.667 170.667h88.768c3.115 21.76 8.512 42.731 16.064 62.699 2.923 7.701 6.208 15.232 9.707 22.635 47.936 100.843 150.443 170.667 269.461 170.667 164.992 0 298.667-133.675 298.667-298.667 0-138.069-93.803-253.653-221.056-287.829-2.773-0.747-5.461-1.707-8.277-2.368-14.315-5.717-24.683-18.88-26.667-34.688-0.235-1.771-0.533-3.541-0.533-5.376s0.32-3.605 0.533-5.376c2.667-21.291 20.629-37.824 42.667-37.824 1.259 0 2.432 0.256 3.669 0.363 5.077 0.448 9.899 1.621 14.315 3.648 161.813 45.141 280.704 193.195 280.704 369.451-0.021 212.075-171.968 384-384.021 384zM695.168 268.502c8.341-8.341 19.243-12.48 30.165-12.48s21.845 4.16 30.187 12.501c16.661 16.683 16.661 43.669 0 60.331l-170.667 170.603c-0.213 0.213-0.448 0.341-0.661 0.533-1.792 1.749-3.733 3.349-5.824 4.779-1.131 0.747-2.368 1.28-3.563 1.92-1.259 0.661-2.453 1.429-3.797 1.984-1.472 0.619-3.029 0.981-4.544 1.408-1.152 0.341-2.24 0.789-3.413 1.003-5.525 1.109-11.2 1.109-16.725 0-1.173-0.213-2.261-0.661-3.413-1.003-1.536-0.448-3.072-0.811-4.544-1.408-1.344-0.555-2.539-1.323-3.797-1.984-1.195-0.661-2.411-1.173-3.563-1.92-2.091-1.408-4.011-3.029-5.824-4.779-0.213-0.192-0.448-0.32-0.661-0.533l-170.667-170.603c-16.661-16.661-16.661-43.648 0-60.331 16.661-16.661 43.669-16.661 60.352 0l97.792 97.792v-366.293c0-23.552 19.115-42.667 42.667-42.667s42.667 19.115 42.667 42.667v366.293l97.835-97.813z" data-tags="cloud-upload" />
<glyph unicode="&#xe65b;" d="M695.168 200.79l-97.835-97.792v323.584c0 23.552-19.115 42.667-42.667 42.667s-42.667-19.115-42.667-42.667v-323.584l-97.835 97.792c-16.661 16.661-43.669 16.661-60.352-0.021-16.661-16.64-16.661-43.648 0-60.331l170.667-170.603c8.341-8.341 19.243-12.48 30.165-12.48s21.824 4.16 30.165 12.48l170.667 170.603c16.661 16.661 16.661 43.669 0 60.331-16.619 16.683-43.627 16.683-60.309 0.021zM640.021 810.624c-167.125 0-308.885-106.965-361.643-256h-22.357c-141.376 0-256-114.624-256-256s114.624-256 256-256h9.941c23.552 0 42.667 19.115 42.667 42.667 0 23.573-19.115 42.667-42.667 42.667h-9.941c-94.229 0-170.667 76.437-170.667 170.667s76.437 170.667 170.667 170.667h88.768c3.115 21.76 8.512 42.731 16.064 62.699 2.923 7.701 6.208 15.232 9.707 22.635 47.936 100.843 150.443 170.667 269.461 170.667 164.992 0 298.667-133.675 298.667-298.667 0-87.531-37.909-165.781-97.941-220.181-2.283-2.091-4.672-4.032-7.019-6.037-7.403-7.744-12.011-18.197-12.011-29.781 0-23.851 19.328-43.179 43.2-43.179 8.64 0 16.661 2.603 23.424 6.976 2.944 2.475 5.845 4.992 8.704 7.573 77.867 70.123 126.976 171.499 126.976 284.608 0 212.096-171.947 384.021-384 384.021z" data-tags="cloud-download" />
<glyph unicode="&#xe65c;" d="M917.355 249.664v91.627c0 65.792-62.208 128-128 128h-192c-19.136 0-42.667 23.531-42.667 42.667v91.627c61.611 18.411 106.667 75.541 106.667 143.040 0 82.347-66.987 149.333-149.333 149.333s-149.333-66.987-149.333-149.333c0-67.52 45.056-124.629 106.667-143.040v-91.627c0-19.136-23.531-42.667-42.667-42.667h-192c-65.792 0-128-62.208-128-128v-91.627c-61.611-18.411-106.667-75.541-106.667-143.040 0-82.347 66.987-149.333 149.333-149.333s149.333 66.987 149.333 149.333c0 67.52-45.056 124.629-106.667 143.040v91.627c0 19.136 23.531 42.667 42.667 42.667h192c14.635 0 29.035 3.221 42.667 8.725v-143.019c-61.611-18.411-106.667-75.541-106.667-143.040 0-82.347 66.987-149.333 149.333-149.333s149.333 66.987 149.333 149.333c0 67.52-45.056 124.629-106.667 143.040v143.019c13.632-5.504 28.032-8.725 42.667-8.725h192c19.136 0 42.667-23.531 42.667-42.667v-91.627c-61.611-18.411-106.667-75.541-106.667-143.040 0-82.347 66.987-149.333 149.333-149.333s149.333 66.987 149.333 149.333c0 67.499-45.056 124.629-106.667 143.040zM448.021 746.624c0 35.285 28.715 64 64 64s64-28.715 64-64-28.715-64-64-64-64 28.693-64 64zM213.355 106.624c0-35.285-28.715-64-64-64s-64 28.715-64 64 28.715 64 64 64 64-28.715 64-64zM576.021 106.624c0-35.285-28.715-64-64-64s-64 28.715-64 64 28.715 64 64 64 64-28.715 64-64zM874.688 42.624c-35.285 0-64 28.715-64 64s28.715 64 64 64 64-28.715 64-64-28.715-64-64-64z" data-tags="sitemap" />
<glyph unicode="&#xe65d;" d="M554.539 537.003l97.963-97.899c16.661-16.661 43.691-16.661 60.352 0 16.64 16.64 16.64 43.669 0 60.331-0.064 0.064-0.149 0.107-0.235 0.192l-169.557 169.536c-0.299 0.32-0.491 0.661-0.789 0.981-16.661 16.661-43.691 16.661-60.352 0v0 0l-170.496-170.475c-0.085-0.085-0.192-0.128-0.277-0.235-16.64-16.661-16.64-43.669 0-60.331 16.661-16.661 43.691-16.661 60.352 0v0l0.043-0.021 97.813 97.792v-536.021c-0.235-11.2 3.861-22.485 12.416-31.040 16.64-16.683 43.669-16.683 60.331 0 8.555 8.555 12.651 19.84 12.416 31.040v536.149zM810.688 895.958h-597.333c-70.677 0-128-57.323-128-128v-554.645c0-70.699 57.323-128 128-128h128c23.573 0 42.667 19.115 42.667 42.667s-19.115 42.667-42.667 42.667h-128c-23.552 0-42.667 19.115-42.667 42.667v554.645c0 23.573 19.115 42.667 42.667 42.667h597.333c23.552 0 42.667-19.093 42.667-42.667v-554.645c0-23.552-19.115-42.667-42.667-42.667h-128c-23.552 0-42.667-19.115-42.667-42.667s19.115-42.667 42.667-42.667h128c70.677 0 128 57.301 128 128v554.645c0 70.677-57.323 128-128 128z" data-tags="upload-square" />
<glyph unicode="&#xe65e;" d="M682.667 490.667c0 23.552-19.115 42.667-42.667 42.667h-384c-23.552 0-42.667-19.115-42.667-42.667s19.115-42.667 42.667-42.667h384c23.573 0 42.667 19.115 42.667 42.667zM968.832 30.187l-205.888 205.867c56.427 69.653 90.389 158.208 90.389 254.613 0 223.509-181.824 405.333-405.333 405.333s-405.333-181.824-405.333-405.333 181.824-405.333 405.333-405.333c96.405 0 184.96 33.963 254.613 90.389l205.888-205.888c8.341-8.32 19.243-12.501 30.165-12.501s21.824 4.16 30.165 12.501c16.661 16.661 16.661 43.691 0 60.352zM128 490.667c0 176.448 143.552 320 320 320s320-143.552 320-320c0-87.061-35.051-166.016-91.648-223.765-0.832-0.704-1.749-1.28-2.539-2.069s-1.365-1.707-2.069-2.539c-57.728-56.576-136.683-91.627-223.744-91.627-176.448 0-320 143.552-320 320z" data-tags="magnifier-reduce" />
<glyph unicode="&#xe65f;" d="M768.021 298.624c-47.317 0-90.197-19.392-121.131-50.624l-226.752 132.309c4.181 14.741 6.571 30.251 6.571 46.315 0 16.085-2.389 31.573-6.571 46.336l226.752 132.288c30.933-31.232 73.792-50.624 121.131-50.624 94.101 0 170.667 76.565 170.667 170.667 0 94.123-76.565 170.667-170.667 170.667s-170.667-76.544-170.667-170.667c0-16.064 2.389-31.573 6.571-46.315l-226.752-132.309c-30.955 31.232-73.813 50.624-121.131 50.624-94.101 0-170.667-76.544-170.667-170.667 0-94.101 76.565-170.667 170.667-170.667 47.317 0 90.197 19.392 121.131 50.624l226.752-132.288c-4.181-14.763-6.571-30.251-6.571-46.336 0-94.101 76.565-170.667 170.667-170.667s170.667 76.565 170.667 170.667c0 94.123-76.565 170.667-170.667 170.667zM768.021 810.624c47.061 0 85.333-38.251 85.333-85.333 0-47.061-38.272-85.333-85.333-85.333-28.416 0-53.44 14.101-68.949 35.499l-8.917 15.275c-4.715 10.581-7.467 22.229-7.467 34.56 0 47.061 38.272 85.333 85.333 85.333zM256.021 341.291c-47.061 0-85.333 38.272-85.333 85.333 0 47.083 38.272 85.333 85.333 85.333 28.416 0 53.461-14.101 68.971-35.52l8.789-15.104c4.779-10.624 7.552-22.336 7.552-34.731 0.021-47.040-38.251-85.312-85.312-85.312zM768.021 42.624c-47.061 0-85.333 38.272-85.333 85.333 0 47.083 38.272 85.333 85.333 85.333s85.333-38.251 85.333-85.333c0-47.061-38.272-85.333-85.333-85.333z" data-tags="share-alt" />
<glyph unicode="&#xe660;" d="M950.763 281.75l-271.787 271.787 55.296 55.275c16.704-8 35.328-12.608 55.061-12.608 70.592 0 128 57.408 128 128s-57.408 128-128 128-128-57.408-128-128c0-19.733 4.608-38.357 12.608-55.061l-55.275-55.275-272.896 272.875c-7.467 6.357-17.024 10.304-27.605 10.304-8.832 0-17.024-2.667-23.829-7.232-0.576-0.469-1.173-0.917-1.749-1.408-2.496-2.133-4.693-4.544-7.147-6.72-9.771-8.661-19.477-17.344-28.459-26.837-79.851-84.16-129.003-197.76-129.003-322.667 0-94.592 28.224-182.656 76.523-256.427-78.229-4.608-140.523-69.504-140.523-148.885 0-82.347 66.987-149.333 149.333-149.333 82.048 0 148.821 66.539 149.291 148.48 69.099-40.107 149.227-63.168 234.709-63.168 124.907 0 238.485 49.152 322.667 129.003 9.984 9.429 19.499 19.349 28.608 29.653 2.517 2.837 4.779 5.888 7.211 8.768 4.053 6.528 6.507 14.165 6.507 22.421 0 11.264-4.437 21.44-11.541 29.056zM789.312 766.87c23.531 0 42.667-19.136 42.667-42.667s-19.136-42.667-42.667-42.667c-11.477 0-21.845 4.608-29.525 11.989-0.192 0.192-0.32 0.448-0.512 0.64s-0.448 0.341-0.64 0.512c-7.381 7.68-11.989 18.048-11.989 29.525 0 23.531 19.136 42.667 42.667 42.667zM213.312 62.891c-35.285 0-64 28.693-64 64 0 35.285 28.715 64 64 64s64-28.715 64-64c0-35.307-28.715-64-64-64zM597.312 148.203c-211.733 0-384 172.267-384 384 0 101.376 39.787 193.429 104.192 262.144l541.952-541.952c-68.715-64.405-160.768-104.192-262.144-104.192z" data-tags="antenna" />
<glyph unicode="&#xe661;" d="M840.832 328.832c-16.64 16.661-43.691 16.661-60.331 0-16.661-16.661-16.661-43.648 0-60.331l97.813-97.835h-280.981c-40.704 0-85.013 68.928-124.117 129.749-29.803 46.357-60.181 93.568-96.384 126.251 36.203 32.683 66.581 79.915 96.384 126.251 39.104 60.821 83.413 129.749 124.117 129.749h280.981l-97.813-97.835c-16.661-16.661-16.661-43.648 0-60.331 8.32-8.341 19.243-12.501 30.165-12.501s21.845 4.16 30.165 12.501l170.667 170.667c16.661 16.661 16.661 43.669 0 60.331l-170.667 170.667c-16.64 16.661-43.691 16.661-60.331 0-16.661-16.661-16.661-43.648 0-60.331l97.813-97.835h-280.981c-87.296 0-142.507-85.867-195.883-168.917-39.104-60.821-83.413-129.749-124.117-129.749h-234.667c-23.552 0-42.667-19.115-42.667-42.667s19.115-42.667 42.667-42.667h234.667c40.704 0 85.013-68.928 124.117-129.749 53.376-83.051 108.587-168.917 195.883-168.917h280.981l-97.813-97.835c-16.661-16.661-16.661-43.648 0-60.331 8.32-8.341 19.243-12.501 30.165-12.501s21.845 4.16 30.165 12.501l170.667 170.667c16.661 16.661 16.661 43.669 0 60.331l-170.667 170.667z" data-tags="share-arrow-alt" />
<glyph unicode="&#xe662;" d="M874.667 789.334h-320.427c0.149 1.387 0.427 2.731 0.427 4.139v58.219c0 23.552-19.115 42.667-42.667 42.667s-42.667-19.115-42.667-42.667v-58.219c0-1.408 0.277-2.752 0.427-4.139h-320.427c-23.552 0-42.667-19.115-42.667-42.667s19.115-42.667 42.667-42.667h725.333c23.552 0 42.667 19.115 42.667 42.667s-19.093 42.667-42.667 42.667zM832 640c-23.552 0-42.667-19.115-42.667-42.667v-490.667c0-40.661-23.339-64-64-64h-64v554.667c0 23.552-19.115 42.667-42.667 42.667s-42.667-19.115-42.667-42.667v-554.667h-128v554.667c0 23.552-19.115 42.667-42.667 42.667s-42.667-19.115-42.667-42.667v-554.667h-64c-40.085 0-64 23.317-64 62.357v492.309c0 23.552-19.115 42.667-42.667 42.667s-42.667-19.115-42.667-42.667v-492.309c0-85.568 62.805-147.691 149.333-147.691h426.667c87.915 0 149.333 61.397 149.333 149.333v490.667c0 23.552-19.093 42.667-42.667 42.667z" data-tags="trash" />
<glyph unicode="&#xe663;" d="M554.731 512c-152.917 0-277.333-124.416-277.333-277.333s124.416-277.333 277.333-277.333 277.333 124.416 277.333 277.333-124.416 277.333-277.333 277.333zM554.731 42.667c-105.856 0-192 86.123-192 192 0 105.856 86.144 192 192 192s192-86.144 192-192c0-105.877-86.144-192-192-192zM640.064 277.334h-170.667c-23.552 0-42.667-19.115-42.667-42.667s19.115-42.667 42.667-42.667h170.667c23.552 0 42.667 19.115 42.667 42.667s-19.115 42.667-42.667 42.667zM640.064 896c-167.125 0-308.885-106.965-361.643-256h-22.357c-141.376 0-256-114.603-256-256 0-121.088 84.139-222.272 197.077-248.917 4.928-2.027 10.304-3.157 15.957-3.2 0.107 0 0.192-0.021 0.299-0.021 23.744 0 42.987 19.243 42.987 42.965 0 20.331-14.144 37.248-33.088 41.728-0.917 0.192-1.835 0.363-2.752 0.533-77.184 16.341-135.147 84.864-135.147 166.912 0 94.229 76.437 170.667 170.667 170.667h88.768c3.115 21.76 8.512 42.709 16.064 62.699 2.923 7.701 6.208 15.211 9.707 22.635 47.936 100.821 150.443 170.667 269.461 170.667 164.992 0 298.667-133.696 298.667-298.667 0-74.624-27.605-142.4-72.875-194.56-1.323-1.28-2.411-2.752-3.563-4.224-5.696-7.296-9.216-16.363-9.216-26.304 0-23.744 19.243-43.008 42.987-43.008 11.648 0 22.187 4.672 29.931 12.224 1.899 2.112 3.669 4.352 5.525 6.507 57.6 67.008 92.544 153.963 92.544 249.344 0 212.096-171.947 384.021-384 384.021z" data-tags="cloud-minus" />
<glyph unicode="&#xe664;" d="M968.875 670.145l-213.333 213.333c-16.64 16.661-43.669 16.661-60.331 0s-16.661-43.691 0-60.352l140.501-140.48h-110.379c-270.549 0-490.667-220.096-490.667-490.667v-21.333c0-23.573 19.115-42.667 42.667-42.667s42.667 19.093 42.667 42.667v21.333c0 223.509 181.824 405.333 405.333 405.333h110.336l-140.501-140.501c-16.661-16.661-16.661-43.691 0-60.352 16.64-16.661 43.669-16.661 60.331 0l213.355 213.333c16.683 16.683 16.683 43.691 0.021 60.352zM832.021 341.313c-23.552 0-42.667-19.115-42.667-42.667v-213.333c0-23.531-19.136-42.667-42.667-42.667h-576c-23.531 0-42.667 19.136-42.667 42.667v597.333c0 23.531 19.136 42.667 42.667 42.667h320c23.552 0 42.667 19.093 42.667 42.667 0 23.552-19.115 42.667-42.667 42.667h-320c-70.592 0-128-57.408-128-128v-597.333c0-70.592 57.408-128 128-128h576c70.592 0 128 57.408 128 128v213.333c0 23.573-19.115 42.667-42.667 42.667z" data-tags="external-share" />
<glyph unicode="&#xe665;" d="M917.333 405.312c-23.552 0-42.667-19.115-42.667-42.667v-277.355c0-23.552-19.115-42.667-42.667-42.667h-640c-23.552 0-42.667 19.115-42.667 42.667v640.021c0 23.552 19.115 42.667 42.667 42.667h277.333c23.552 0 42.667 19.093 42.667 42.667 0 23.552-19.115 42.667-42.667 42.667h-277.333c-70.677 0-128-57.323-128-128v-640c0-70.677 57.323-128 128-128h640c70.677 0 128 57.323 128 128v277.333c0 23.573-19.115 42.667-42.667 42.667zM959.147 818.987c-0.256 1.301-0.725 2.475-1.088 3.712-0.427 1.429-0.747 2.88-1.323 4.267-0.597 1.451-1.429 2.773-2.197 4.181-0.576 1.045-1.045 2.155-1.728 3.157-3.115 4.693-7.147 8.704-11.819 11.819-1.067 0.725-2.24 1.237-3.371 1.835-1.323 0.704-2.581 1.515-3.989 2.069-1.408 0.619-2.88 0.96-4.352 1.387-1.195 0.363-2.347 0.832-3.584 1.067-2.752 0.555-5.547 0.853-8.363 0.853h-256c-23.552 0-42.667-19.115-42.667-42.667 0-23.573 19.115-42.667 42.667-42.667h153.003l-332.501-332.523c-16.661-16.661-16.661-43.669 0-60.352 8.32-8.32 19.243-12.48 30.165-12.48s21.845 4.16 30.165 12.48l332.501 332.501v-131.648c0-23.573 19.115-42.667 42.667-42.667s42.667 19.093 42.667 42.667v234.667c0 2.795-0.299 5.589-0.853 8.341z" data-tags="external-link" />
<glyph unicode="&#xe666;" d="M341.355 383.979c-70.592 0-128-57.408-128-128s57.408-128 128-128 128 57.408 128 128-57.408 128-128 128zM341.355 213.312c-23.531 0-42.667 19.136-42.667 42.667s19.136 42.667 42.667 42.667 42.667-19.136 42.667-42.667c0-23.531-19.136-42.667-42.667-42.667zM853.952 895.979h-682.667c-70.677 0-128-57.344-128-128v-682.667c0-70.699 57.323-128 128-128h682.667c70.677 0 128 57.301 128 128v682.667c0 70.677-57.323 128-128 128zM896.619 85.291c0-23.552-19.115-42.667-42.667-42.667h-682.667c-23.552 0-42.667 19.115-42.667 42.667v682.688c0 23.531 19.115 42.667 42.667 42.667h682.667c23.552 0 42.667-19.136 42.667-42.667v-682.688zM298.688 565.312h-42.667c-23.552 0-42.667-19.115-42.667-42.667 0-23.573 19.115-42.667 42.667-42.667h42.667c147.051 0 266.667-119.616 266.667-266.667v-42.667c0-23.573 19.115-42.667 42.667-42.667s42.667 19.093 42.667 42.667v42.667c0 194.091-157.909 352-352 352zM298.688 746.646h-42.667c-23.552 0-42.667-19.115-42.667-42.667 0-23.573 19.115-42.667 42.667-42.667h42.667c247.040 0 448-200.981 448-448v-42.667c0-23.573 19.115-42.667 42.667-42.667s42.667 19.093 42.667 42.667v42.667c0 294.101-239.253 533.333-533.333 533.333z" data-tags="rss-square" />
<glyph unicode="&#xe667;" d="M853.355 703.958c0 82.347-66.987 149.333-149.333 149.333s-149.333-66.987-149.333-149.333c0-57.515 32.725-107.435 80.469-132.373-15.531-40.491-68.181-69.781-142.229-106.795-7.275-3.627-14.912-7.36-22.763-11.179-34.048-16.576-73.28-35.797-107.477-60.053v210.027c61.611 18.411 106.667 75.541 106.667 143.040 0 82.347-66.987 149.333-149.333 149.333s-149.333-66.987-149.333-149.333c0-67.52 45.056-124.629 106.667-143.040v-353.92c-61.611-18.411-106.667-75.541-106.667-143.040 0-82.347 66.987-149.333 149.333-149.333s149.333 66.987 149.333 149.333c0 67.52-45.056 124.629-106.667 143.040v6.293c0 50.389 83.712 91.157 144.853 120.917 8.128 3.968 16.043 7.829 23.573 11.584 78.827 39.424 166.635 83.456 188.821 167.040 74.88 7.957 133.419 71.488 133.419 148.459zM256.021 746.624c0 35.285 28.715 64 64 64s64-28.715 64-64-28.715-64-64-64-64 28.693-64 64zM384.021 106.624c0-35.285-28.715-64-64-64s-64 28.715-64 64 28.715 64 64 64 64-28.715 64-64zM704.021 639.958c-35.285 0-64 28.715-64 64s28.715 64 64 64 64-28.715 64-64-28.715-64-64-64z" data-tags="code-fork" />
</font>
</defs>
</svg>
